<?xml version="1.0" standalone="no"?>
<!DOCTYPE svg PUBLIC "-//W3C//DTD SVG 1.1//EN" "http://www.w3.org/Graphics/SVG/1.1/DTD/svg11.dtd" >
<svg xmlns="http://www.w3.org/2000/svg">
<metadata><json><![CDATA[{
	"author": "LineIcons",
	"description": "Handcrafted Line Icons for Modern User Interfaces of Web, Android, iOS, and Desktop App Projects",
	"version": "2.0",
	"copyright": "https://lineicons.com/license/",
	"license": "Creative Commons",
	"url": "https://lineicons.com/"
}]]></json></metadata>
<defs>
  <font id="LineIconsPro Light" horiz-adv-x="256">
    <font-face font-family="LineIconsPro Light"
      units-per-em="144" ascent="128"
      descent="16" />
    <missing-glyph horiz-adv-x="0" />
    <glyph glyph-name="air-flow"
      unicode="&#xEA02;"
      horiz-adv-x="144" d="M142.425 6.95L129.375 15.05C122.4 19.325 113.625 19.325 106.425 15.05L103.05 13.025C98.1 10.1 92.025 10.1 87.3 13.025L83.925 15.05C76.95 19.325 68.175 19.325 60.975 15.05L57.6 13.025C52.65 10.1 46.575 10.1 41.85 13.025L38.25 15.05C31.275 19.325 22.5 19.325 15.3 15.05L2.025 6.95C0.45 6.05 0 3.8 0.9 2.225C1.8 0.65 4.05 0.2 5.625 1.1L18.9 9.2C23.85 12.125 29.925 12.125 34.65 9.2L38.25 7.175C45.225 2.9 54 2.9 61.2 7.175L64.575 9.2C69.525 12.125 75.6 12.125 80.325 9.2L83.7 7.175C90.675 2.9 99.45 2.9 106.65 7.175L110.025 9.2C114.975 12.125 121.05 12.125 126 9.2L139.05 1.1C139.5 0.875 140.175 0.65 140.85 0.65C141.975 0.65 143.1 1.325 143.775 2.225C144.45 4.025 144 6.05 142.425 6.95zM142.425 53.525L129.375 61.625C122.4 65.9 113.625 65.9 106.425 61.625L103.05 59.6C98.1 56.675 92.025 56.675 87.3 59.6L83.925 61.625C76.95 65.9 68.175 65.9 60.975 61.625L57.6 59.6C52.65 56.675 46.575 56.675 41.85 59.6L38.25 61.625C31.275 65.9 22.5 65.9 15.3 61.625L2.025 53.525C0.45 52.625 0 50.375 0.9 48.8C1.575 47.675 2.7 47.225 3.825 47.225C4.5 47.225 4.95 47.45 5.625 47.675L18.9 55.775C23.85 58.7 29.925 58.7 34.65 55.775L38.25 53.75C45.225 49.475 54 49.475 61.2 53.75L64.575 55.775C69.525 58.7 75.6 58.7 80.325 55.775L83.7 53.75C90.675 49.475 99.45 49.475 106.65 53.75L110.025 55.775C114.975 58.7 121.05 58.7 126 55.775L139.05 47.675C140.625 46.775 142.65 47.225 143.775 48.8C144.45 50.375 144 52.625 142.425 53.525zM5.175 94.25L18.45 102.35C23.4 105.275 29.475 105.275 34.2 102.35L37.8 100.325C44.775 96.05 53.55 96.05 60.75 100.325L64.125 102.35C69.075 105.275 75.15 105.275 79.875 102.35L83.25 100.325C90.225 96.05 99 96.05 106.2 100.325L109.575 102.35C114.525 105.275 120.6 105.275 125.55 102.35L138.6 94.25C139.05 94.025 139.725 93.8 140.4 93.8C141.525 93.8 142.65 94.475 143.325 95.375C144.225 96.95 143.775 98.975 142.2 100.1L129.15 108.2C122.175 112.475 113.4 112.475 106.2 108.2L102.825 106.175C97.875 103.25 91.8 103.25 87.075 106.175L83.7 108.2C76.5 112.25 67.725 112.25 60.525 107.975L57.15 105.95C52.2 103.025 46.125 103.025 41.4 105.95L37.8 107.975C30.6 112.25 21.825 112.25 14.85 107.975L1.575 99.875C0 98.975 -0.45 96.725 0.45 95.15C1.575 93.8 3.6 93.35 5.175 94.25z" />
    <glyph glyph-name="air"
      unicode="&#xEA03;"
      horiz-adv-x="144" d="M131.625 103.925C131.625 116.075 121.725 125.975 109.8 125.975C108 125.975 106.425 124.4 106.425 122.6S107.775 119 109.8 119C118.125 119 124.875 112.25 124.875 103.7C124.875 95.375 118.125 88.4 109.8 88.4H3.375C1.575 88.625 0 87.05 0 85.25S1.575 81.875 3.375 81.875H109.8C121.725 81.875 131.625 91.775 131.625 103.925zM24.975 57.125C23.175 57.125 21.6 55.55 21.6 53.75S23.175 50.375 24.975 50.375H98.1C99.9 50.375 101.475 51.95 101.475 53.75S99.9 57.125 98.1 57.125H24.975zM122.175 25.175H15.75C13.95 25.175 12.375 23.6 12.375 21.8S13.95 18.425 15.75 18.425H122.175C130.5 18.425 137.25 11.675 137.25 3.125C137.25 -1.15 135.45 -5.2 132.3 -8.125C130.95 -9.475 130.725 -11.5 132.075 -12.85C132.75 -13.525 133.65 -13.975 134.55 -13.975C135.45 -13.975 136.125 -13.75 136.8 -13.075C141.3 -8.8 144 -2.95 144 3.125C144 15.275 134.1 25.175 122.175 25.175z" />
    <glyph glyph-name="cloud-moon"
      unicode="&#xEA04;"
      horiz-adv-x="144" d="M142.425 87.95C141.075 89.075 139.275 89.3 137.7 88.625C127.125 83.45 114.3 87.05 108 96.95C103.725 103.7 103.275 112.025 106.425 119.225C107.1 120.8 106.875 122.6 105.75 123.95C104.625 125.3 102.825 125.75 101.25 125.3C94.95 123.5 89.55 119.9 85.275 114.725C81.45 110.225 78.975 104.825 77.85 98.975C77.4 96.725 77.175 94.25 77.175 92C77.175 90.2 78.75 88.625 80.55 88.625S83.925 90.2 83.925 92S84.15 95.825 84.375 97.625C85.275 102.35 87.3 106.625 90.45 110.225C92.925 112.925 95.625 115.175 98.775 116.75C96.75 108.65 98.1 100.325 102.6 93.125C109.8 81.875 123.3 76.925 135.9 80.3C133.65 75.8 130.275 71.975 126.0000000000001 69.275C123.5250000000001 67.7 120.6000000000001 66.575 117.9000000000001 65.675C116.1000000000001 65.225 114.9750000000001 63.425 115.4250000000001 61.625C115.8750000000001 60.05 117.225 59.15 118.8000000000001 59.15H119.7000000000001C123.3000000000001 60.05 126.6750000000001 61.625 129.8250000000001 63.425C136.8000000000001 67.925 141.975 74.9 144.2250000000001 83C144.2250000000001 85.025 143.775 86.825 142.4250000000001 87.95zM98.1 49.7C97.425 49.7 97.2 50.15 96.975 50.6C91.8 61.85 80.55 69.275 68.175 69.275C55.35 69.275 43.875 61.625 39.15 49.7C38.7 49.25 38.25 49.025 37.8 49.25C31.275 50.6 24.525 49.925 18.225 47C8.775 42.725 1.8 33.5 0.225 23.375C-1.125 14.15 1.35 4.925 7.425 -2.275C13.5 -9.25 22.275 -13.3 31.5 -13.3H93.6C110.25 -13.3 124.65 -0.7 126.225 15.05C127.8 32.6 115.425 47.675 98.1 49.7zM119.25 15.725C118.125 3.125 106.65 -6.55 93.375 -6.55H31.5C24.3 -6.55 17.325 -3.4 12.825 2C8.1 7.625 6.075 14.825 7.2 22.025C8.325 30.125 13.725 37.1 21.15 40.7C24.525 42.275 28.125 42.95 31.5 42.95C33.075 42.95 34.875 42.725 36.45 42.5C40.05 41.825 43.65 43.625 45.225 47C49.05 56.225 58.05 62.3 68.175 62.3C77.85 62.3 86.85 56.45 90.9 47.675C92.025 44.975 94.5 43.175 97.65 42.725C110.925 41.375 120.6 29.45 119.25 15.725z" />
    <glyph glyph-name="cloud-sun"
      unicode="&#xEA05;"
      horiz-adv-x="144" d="M118.575 51.05C118.125 51.05 117.9 51.275 117.675 51.725C113.175 62.075 102.825 68.6 91.575 68.6C79.875 68.6 69.75 61.625 65.25 51.05C65.25 50.825 65.025 50.6 64.8 50.825C58.95 52.175 52.65 51.275 47.025 48.8C38.475 44.975 32.175 36.65 30.825 27.425C29.475 19.1 31.95 10.55 37.35 4.25C42.75 -2.05 50.625 -5.65 58.95 -5.65H114.3C129.375 -5.65 142.425 5.6 143.775 20C145.35 35.3 134.1 49.25 118.575 51.05zM137.25 20.45C136.125 9.425 126.225 0.875 114.525 0.875H59.175C52.875 0.875 46.8 3.575 42.75 8.525C38.475 13.475 36.675 19.775 37.8 26.3C38.925 33.275 43.65 39.575 50.175 42.725C53.1 44.075 56.25 44.75 59.4 44.75C60.75 44.75 62.325 44.525 63.675 44.3C67.05 43.625 70.65 45.425 71.775 48.575C75.15 56.675 83.025 62.075 91.8 62.075C100.35 62.075 108.225 56.9 111.6 49.25C112.725 46.775 114.975 44.975 117.9 44.75C129.825 42.95 138.375 32.6 137.25 20.45zM33.75 60.05C35.55 60.725 36.45 62.525 36 64.325C35.55 65.9 35.325 67.7 35.325 69.275C35.325 78.275 42.75 85.7 51.75 85.7C57.15 85.7 62.1 83 65.25 78.725C66.375 77.15 68.4 76.7 69.975 77.825C71.55 78.95 72 80.975 70.875 82.55C66.6 88.85 59.4 92.45 51.975 92.45C39.15 92.45 28.8 82.1 28.8 69.275C28.8 66.8 29.25 64.55 29.925 62.3C30.375 60.95 31.725 60.05 33.075 60.05C33.075 59.825 33.3 59.825 33.75 60.05zM53.775 107.075C55.575 107.075 57.15 108.65 57.15 110.45V114.5C57.15 116.3 55.575 117.875 53.775 117.875S50.4 116.3 50.4 114.5V110.45C50.4 108.65 51.975 107.075 53.775 107.075zM86.175 92.9C87.075 92.9 87.975 93.125 88.65 93.8L92.7 97.85C94.05 99.2 94.05 101.225 92.7 102.575C91.35 103.925 89.325 103.925 87.975 102.575L83.7 98.75C82.35 97.4 82.35 95.375 83.7 94.025C84.375 93.125 85.275 92.9 86.175 92.9zM7.425 67.25H3.375C1.575 67.25 0 65.9 0 63.875S1.575 60.5 3.375 60.5H7.425C9.225 60.5 10.8 62.075 10.8 63.875S9.225 67.25 7.425 67.25zM20.025 102.8C18.675 104.15 16.65 104.15 15.3 102.8C13.95 101.45 13.95 99.425 15.3 98.075L19.35 94.025C20.025 93.35 20.925 93.125 21.825 93.125C22.725 93.125 23.625 93.35 24.3 94.025C25.65 95.375 25.65 97.4 24.3 98.75L20.025 102.8z" />
    <glyph glyph-name="cloud-alt"
      unicode="&#xEA06;"
      horiz-adv-x="144" d="M115.65 65.675C112.5 65.675 109.35 65.225 106.2 64.1C106.425 65.675 106.425 67.025 106.425 68.6C106.425 87.725 90.9 103.25 71.775 103.25S37.35 87.5 37.35 68.375C37.35 66.8 37.35 65.45 37.575 63.875C34.65 65 31.5 65.45 28.125 65.45C12.6 65.675 0 52.85 0 37.325S12.6 8.975 28.35 8.975H115.65C131.175 8.975 144 21.575 144 37.325C144 52.85 131.4 65.675 115.65 65.675zM115.65 15.725H28.35C16.425 15.725 6.75 25.4 6.75 37.325S16.425 58.925 28.35 58.925C32.85 58.925 37.125 57.575 40.725 54.875C41.85 53.975 43.65 53.975 44.775 54.875S46.35 57.35 45.9 58.7C44.775 61.85 44.1 65 44.1 68.375C44.1 83.675 56.475 96.275 72 96.275S99.9 83.9 99.9 68.375C99.9 65 99.225 61.85 98.1 58.7C97.65 57.35 98.1 55.775 99.225 54.875C100.35 53.975 101.925 53.975 103.275 54.875C106.875 57.575 111.15 58.925 115.65 58.925C127.575 58.925 137.25 49.25 137.25 37.325S127.575 15.725 115.65 15.725z" />
    <glyph glyph-name="cloudy-sun"
      unicode="&#xEA07;"
      horiz-adv-x="144" d="M114.75 66.35C114.75 81.425 103.05 93.8 88.875 93.8C74.925 93.8 64.575 84.8 63.225 71.75C61.2 72.2 58.95 72.425 56.7 72.425C38.925 72.425 24.525 58.7 23.85 41.6C10.35 40.25 0 29.45 0 16.175C0 2.225 11.7 -9.25 25.875 -9.25H78.525C97.425 -9.25 112.725 5.825 112.725 24.05C112.725 31.7 110.025 39.125 104.85 45.2C111.15 50.375 114.75 58.025 114.75 66.35zM88.875 87.05C99.45 87.05 108 77.825 108 66.35C108 59.825 105.075 53.75 100.35 49.925C95.85 53.525 90.225 56 84.375 56.9C80.775 62.525 75.6 67.025 69.75 69.5V69.725C70.2 80.075 77.85 87.05 88.875 87.05zM78.525 -2.5H26.1C15.3 -2.5 6.75 5.6 6.75 16.175C6.75 26.75 15.3 34.85 26.1 34.85H27C28.8 34.85 30.375 36.425 30.375 38.225V40.25C30.375 54.2 42.075 65.675 56.475 65.675C59.625 65.675 62.325 65.225 64.8 64.325C70.875 62.3 76.05 58.025 79.2 52.4C79.65 51.5 80.775 50.825 81.9 50.6C88.425 49.925 94.5 46.775 99 42.275C103.725 37.325 106.2 30.8 106.2 24.05C106.2 9.425 93.825 -2.5 78.525 -2.5zM90.225 104.375C92.025 104.375 93.6 105.95 93.6 107.75V117.875C93.6 119.675 92.025 121.25 90.225 121.25S86.85 119.675 86.85 117.875V107.75C86.85 105.95 88.2 104.375 90.225 104.375zM127.575 105.05C126.225 106.4 124.2 106.4 122.85 105.05L116.55 98.525C115.2 97.175 115.2 95.15 116.55 93.8C117.225 93.125 118.125 92.9 119.025 92.9C119.925 92.9 120.825 93.125 121.5 93.8L127.8 100.325C128.925 101.675 128.925 103.7 127.575 105.05zM140.625 67.025H130.5C128.7 67.025 127.125 65.45 127.125 63.65S128.7 60.275 130.5 60.275H140.625C142.425 60.275 144 61.85 144 63.65S142.425 67.025 140.625 67.025zM56.925 93.125C57.6 92.45 58.5 92.225 59.4 92.225C60.3 92.225 61.2 92.45 61.875 93.125C63.225 94.475 63.225 96.5 61.875 97.85L54.675 105.05C53.325 106.4 51.3 106.4 49.95 105.05C48.6 103.7 48.6 101.675 49.95 100.325L56.925 93.125z" />
    <glyph glyph-name="cloud-alt-2"
      unicode="&#xEA08;"
      horiz-adv-x="144" d="M112.275 80.525C111.375 80.525 110.7 81.2 110.475 81.875C104.625 94.7 92.025 103.025 77.85 103.025C63.225 103.025 50.4 94.25 44.775 80.975C44.55 80.3 43.65 79.85 42.975 80.075C35.55 81.65 27.9 80.75 20.7 77.6C9.9 72.65 2.25 62.3 0.45 50.825C-1.125 40.25 1.8 29.675 8.55 21.8S25.2 9.425 35.55 9.425H106.875C125.775 9.425 141.975 23.6 143.775 41.6C145.8 61.175 131.85 78.275 112.275 80.525zM137.025 41.825C135.675 27.2 122.4 15.725 106.875 15.725H35.775C27.225 15.725 19.35 19.325 13.725 25.85C8.1 32.375 5.85 40.7 6.975 49.475C8.325 58.925 14.625 67.25 23.4 71.3C27.225 73.1 31.5 74 35.55 74C37.575 74 39.375 73.775 41.4 73.325C45.45 72.425 49.275 74.675 50.85 78.275C55.35 89.075 65.925 96.275 77.625 96.275C89.1 96.275 99.45 89.525 104.175 79.175C105.525 76.25 108.225 74.225 111.375 73.775C127.35 71.975 138.6 58.025 137.025 41.825z" />
    <glyph glyph-name="drop"
      unicode="&#xEA09;"
      horiz-adv-x="144" d="M72.225 -16C46.575 -16 25.2 3.8 24.75 28.325V33.275C24.75 45.425 27.9 58.475 33.975 72.425C41.175 89.525 53.1 108.65 66.15 125.3C67.5 126.875 69.75 128 72.225 128S76.725 126.875 78.3 125.075C92.25 107.75 103.725 88.85 110.475 71.525C116.325 57.125 119.25 44.525 119.25 32.825V28.1C119.025 3.8 97.875 -16 72.225 -16zM72.225 121.25C72 121.25 71.775 121.25 71.325 120.8C58.5 104.825 47.25 86.15 40.05 69.5C34.425 56.45 31.5 44.075 31.5 33.05V28.325C31.95 7.625 50.175 -9.25 72.225 -9.25S112.5 7.4 112.5 27.875V32.6C112.5 43.4 109.8 55.325 104.175 68.825C97.65 85.25 86.4 104.15 72.9 120.8C72.675 121.25 72.45 121.25 72.225 121.25z" />
    <glyph glyph-name="farenheit"
      unicode="&#xEA0A;"
      horiz-adv-x="144" d="M140.625 120.35H85.05C77.4 120.35 71.1 114.05 71.1 106.175V-9.025C71.1 -10.825 72.675 -12.4 74.475 -12.4S77.85 -10.825 77.85 -9.025V59.6H131.85C133.65 59.6 135.225 61.175 135.225 62.975S133.65 66.35 131.85 66.35H77.85V106.175C77.85 110.225 81.225 113.6 85.05 113.6H140.625C142.425 113.6 144 115.175 144 116.975S142.425 120.35 140.625 120.35zM22.275 124.175H12.375C5.625 124.175 0 118.775 0 111.8V101.45C0 94.7 5.625 89.075 12.375 89.075H22.275C29.025 89.075 34.65 94.7 34.65 101.45V111.8C34.65 118.775 29.025 124.175 22.275 124.175zM27.9 101.675C27.9 98.525 25.425 96.05 22.275 96.05H12.375C9.225 96.05 6.75 98.525 6.75 101.675V111.8C6.75 114.95 9.225 117.425 12.375 117.425H22.275C25.425 117.425 27.9 114.95 27.9 111.8V101.675z" />
    <glyph glyph-name="moon-star"
      unicode="&#xEA0B;"
      horiz-adv-x="144" d="M125.1 22.7C96.75 20 70.875 38.675 64.8 66.575C60.75 85.25 66.375 104.6 79.875 118.1C81.45 119.675 82.125 122.15 81.225 124.175C80.325 126.2 78.525 127.775 76.275 127.775C61.65 128.675 47.7 125.3 34.65 117.425C12.15 103.925 -1.35 78.5 0 52.625C1.125 31.25 11.475 11.45 28.35 -1.375C40.95 -10.825 56.475 -16 72 -16C77.175 -16 82.35 -15.55 87.3 -14.425C104.625 -10.6 119.925 -0.7 130.275 13.7C131.625 15.5 131.625 17.75 130.5 19.775C129.6 21.8 127.35 22.925 125.1 22.7zM85.95 -7.675C67.275 -11.725 47.7 -7.45 32.4 4.25C17.1 15.725 7.875 33.725 6.75 53.075C5.625 76.475 18 99.65 38.25 111.8C48.6 118.1 59.85 121.25 71.775 121.25H73.575C59.625 106.175 53.775 85.25 58.275 65.225C64.8 34.85 92.7 14.15 123.525 15.95C114.075 3.8 100.8 -4.525 85.95 -7.675zM101.925 97.85L99.675 85.025C99.45 83.675 99.9 82.55 101.025 81.65C101.7 81.2 102.375 80.975 103.05 80.975C103.5 80.975 104.175 81.2 104.625 81.425L116.1 87.5L127.575 81.425C128.7 80.75 130.05 80.975 131.175 81.65C132.3 82.325 132.75 83.675 132.525 85.025L130.275 97.85L139.5 106.85C140.4 107.75 140.85 109.1 140.4 110.225C139.95 111.35 139.05 112.25 137.7 112.475L124.875 114.5L119.25 126.2C118.575 127.325 117.45 128 116.1 128S113.625 127.325 113.175 126.2L107.325 114.5L94.5 112.7C93.15 112.475 92.25 111.575 91.8 110.45C91.35 109.325 91.8 107.975 92.7 107.075L101.925 97.85zM110.25 107.975C111.375 108.2 112.275 108.875 112.725 109.775L116.325 116.975L119.925 109.775C120.375 108.875 121.275 107.975 122.4 107.975L130.275 106.85L124.65 101.225C123.75 100.55 123.525 99.425 123.75 98.3L125.1 90.425L117.675 94.25C116.775 94.7 115.425 94.7 114.525 94.25L107.55 90.65L108.9 98.525C109.125 99.65 108.675 100.775 108 101.45L102.375 107.075L110.25 107.975zM143.775 53.525C143.325 54.65 142.425 55.55 141.075 55.775L132.3 57.125L128.475 65C127.8 66.125 126.675 66.8 125.55 66.8S123.075 66.125 122.625 65L118.8 57.125L110.025 55.775C108.675 55.55 107.775 54.65 107.325 53.525C106.875 52.4 107.325 51.05 108.225 50.15L114.525 44.075L112.95 35.3C112.725 33.95 113.175 32.825 114.3 31.925C115.425 31.25 116.775 31.025 117.9 31.7L125.775 35.75L133.65 31.7C134.1 31.475 134.775 31.25 135.225 31.25C135.9 31.25 136.575 31.475 137.25 31.925C138.375 32.6 138.825 33.95 138.6 35.3L137.025 44.075L143.325 50.15C144 51.05 144.225 52.4 143.775 53.525zM130.725 47.45C129.825 46.775 129.6 45.65 129.825 44.525L130.5 40.925L127.125 42.5C126.675 42.725 126 42.95 125.55 42.95S124.425 42.725 123.975 42.5L120.6 40.7L121.275 44.3C121.5 45.425 121.05 46.55 120.375 47.225L117.675 49.925L121.275 50.375C122.4 50.6 123.3 51.275 123.75 52.175L125.325 55.55L126.9 52.175C127.35 51.275 128.25 50.6 129.375 50.375L132.975 49.925L130.725 47.45z" />
    <glyph glyph-name="cloud"
      unicode="&#xEA0C;"
      horiz-adv-x="144" d="M100.575 2.9H32.625C14.625 2.9 0 17.75 0 35.75C0 53.075 13.5 67.25 30.6 68.375C31.05 90.875 49.5 109.1 72 109.1C76.95 109.1 81.45 108.425 85.5 106.85C94.5 103.7 102.15 97.4 107.325 88.85C117 87.5 126 82.55 132.525 75.575C139.95 67.475 144 57.125 144 46.1C144 22.25 124.65 2.9 100.575 2.9zM32.625 9.65H100.575C120.825 9.65 137.25 26.075 137.25 46.1C137.25 55.325 133.875 64.1 127.575 70.85C121.95 77.15 113.625 81.2 105.075 82.1C103.95 82.325 103.05 82.775 102.375 83.9C98.1 91.775 91.35 97.625 83.25 100.325C79.875 101.675 76.275 102.35 72 102.35C52.875 102.35 37.125 86.825 37.125 67.475V65C37.125 63.2 35.55 61.625 33.75 61.625H32.625C18.225 61.625 6.75 50.15 6.75 35.75S18.225 9.65 32.625 9.65z" />
    <glyph glyph-name="night-thunder"
      unicode="&#xEA0D;"
      horiz-adv-x="144" d="M130.5 96.95C129.15 98.075 127.35 98.3 125.775 97.4C117.225 93.35 107.1 96.275 102.15 104.15C98.775 109.55 98.325 116.075 101.025 121.925C101.7 123.5 101.475 125.3 100.35 126.425C99.225 127.775 97.425 128.225 95.85 127.775C90.45 126.2 85.95 123.275 82.35 119C79.2 115.175 76.95 110.675 76.05 105.725C75.6 103.7 75.6 101.9 75.6 99.875C75.6 98.075 77.175 96.5 78.975 96.5S82.35 98.075 82.35 99.875C82.35 101.45 82.35 102.8 82.8 104.375C83.475 108.2 85.275 111.575 87.525 114.5C89.1 116.3 90.9 117.875 92.925 119.225C91.575 112.925 92.925 106.175 96.3 100.55C102.15 91.55 112.95 87.275 123.075 89.525C121.275 86.375 118.8 83.9 115.875 81.875C113.85 80.525 111.6 79.625 109.35 78.95C107.55 78.5 106.425 76.7 106.875 74.9C107.325 73.325 108.675 72.425 110.25 72.425H111.15C114.3 73.1 117 74.45 119.7 76.025C125.55 79.85 130.05 85.7 131.85 92.45C132.3 94.25 131.625 95.825 130.5 96.95zM93.6 65.675C93.375 65.675 93.15 65.9 93.15 66.125C88.875 75.575 79.425 81.875 68.85 81.875C58.05 81.875 48.375 75.35 44.325 65.45L44.1 65.225C38.475 66.35 32.85 65.675 27.675 63.425C19.575 59.825 13.95 52.175 12.6 43.4C11.25 35.75 13.5 27.875 18.45 22.025C23.4 16.175 30.825 12.8 38.7 12.8C40.5 12.8 42.075 14.375 42.075 16.175S40.5 19.55 38.7 19.55C32.85 19.55 27.45 22.025 23.625 26.525C19.8 31.025 18.225 36.65 19.125 42.5C20.025 49.025 24.525 54.65 30.375 57.35C34.425 59.15 38.7 59.6 42.75 58.7C46.125 58.025 49.275 59.825 50.625 62.75C53.775 70.175 60.975 74.9 68.85 74.9S83.7 70.4 87.075 63.2C88.2 60.725 90.45 59.15 92.925 58.925C103.725 57.8 111.6 48.125 110.475 37.325C109.575 28.325 102.375 21.125 92.925 19.775C91.125 19.55 89.775 17.75 90 15.95C90.225 14.15 92.025 12.8 93.825 13.025C106.425 14.825 115.875 24.725 117 36.65C118.575 51.05 108 64.1 93.6 65.675zM70.425 11.9H63.9L72.9 24.275C74.025 25.85 73.575 27.875 72.225 29C70.65 30.125 68.625 29.675 67.5 28.325L58.05 15.275C56.7 13.25 56.475 10.775 57.6 8.75C58.725 6.725 60.75 5.375 63.225 5.375H69.75L58.95 -10.375C57.825 -11.95 58.275 -13.975 59.85 -15.1C60.525 -15.55 61.2 -15.775 61.65 -15.775C62.775 -15.775 63.675 -15.325 64.35 -14.2L75.6 2.225C76.95 4.25 77.175 6.725 76.05 8.75C74.925 10.55 72.9 11.9 70.425 11.9z" />
    <glyph glyph-name="drop-alt"
      unicode="&#xEA0E;"
      horiz-adv-x="144" d="M123.75 46.325C121.275 56.9 114.975 66.125 109.125 74.9C108 76.475 106.875 78.275 105.75 79.85L74.925 126.425C73.575 128.225 70.65 128.225 69.3 126.425L36.45 76.925C34.875 74.45 33.3 72.2 31.725 69.725C28.125 64.1 24.075 57.125 21.375 49.025C15.75 31.925 19.575 14.825 31.95 1.775C42.525 -9.475 57.825 -16 72.675 -16C74.25 -16 76.05 -16 77.625 -15.775C93.375 -14.2 108 -5.425 116.775 7.625C124.425 18.875 126.9 32.825 123.75 46.325zM111.375 11.45C103.725 -0.025 90.9 -7.675 77.175 -9.025C62.775 -10.375 47.475 -4.525 37.125 6.5C26.55 17.75 23.175 32.375 28.125 47.45C30.375 54.65 34.2 61.175 37.575 66.575C39.15 68.825 40.725 71.3 42.075 73.55L72 118.55L100.125 76.025C101.25 74.45 102.375 72.65 103.5 71.075C109.125 62.75 114.975 54.2 117.225 44.75C119.925 33.275 117.675 20.9 111.375 11.45z" />
    <glyph glyph-name="night"
      unicode="&#xEA0F;"
      horiz-adv-x="144" d="M66.6 121.25H66.825C70.65 120.575 74.7 119.675 78.75 118.55C112.275 107.3 131.4 72.2 121.95 39.125C113.625 9.65 86.4 -9.25 57.15 -9.25C50.625 -9.25 43.875 -8.35 37.35 -6.325C31.275 -4.525 25.65 -1.825 20.475 1.55C18.9 2.45 19.575 4.925 21.375 4.925C49.275 5.825 74.7 23.825 83.25 51.05C91.125 75.575 83.25 101.45 65.25 118.1C63.9 119.225 65.025 121.25 66.6 121.25M66.6 128C63 128 59.85 125.75 58.5 122.375C57.15 119 58.05 115.4 60.75 113.15C77.4 97.625 83.7 74.675 76.95 53.3C69.525 29.45 47.025 12.8 21.375 11.9C17.55 11.9 14.175 9.425 13.275 5.6C12.375 2 13.95 -2.05 17.1 -3.85C23.175 -7.675 29.475 -10.6 35.55 -12.4C42.525 -14.425 49.95 -15.55 57.15 -15.55C90.225 -15.55 119.475 6.275 128.475 37.55C138.825 74.45 117.9 112.925 81 125.3C76.95 126.65 72.675 127.55 68.175 128.225C67.5 128 67.05 128 66.6 128z" />
    <glyph glyph-name="rain"
      unicode="&#xEA10;"
      horiz-adv-x="144" d="M132.525 87.5C126 94.475 117 99.425 107.55 100.775C102.6 109.325 94.725 115.625 85.725 118.775C81.675 120.35 77.175 121.025 72.225 121.025C49.5 121.025 31.05 102.8 30.6 80.3C13.5 79.175 0 65 0 47.675C0 29.45 14.4 15.05 32.625 15.05H40.5C42.3 15.05 43.875 16.625 43.875 18.425S42.3 21.8 40.5 21.8H32.625C18 21.8 6.75 33.275 6.75 47.675S18.225 73.55 32.85 73.55H33.975C35.775 73.55 37.35 75.125 37.35 76.925V79.4C37.35 98.75 52.875 114.275 72 114.275C76.05 114.275 79.875 113.6 83.025 112.25C91.125 109.325 97.875 103.7 102.15 95.825C102.6 94.925 103.725 94.25 104.85 94.025C113.4 93.125 121.725 89.075 127.35 82.775C133.65 76.025 137.025 67.25 137.025 58.025C137.025 38 120.6 21.575 100.35 21.575C98.55 21.575 96.975 20 96.975 18.2S98.55 14.825 100.35 14.825C124.2 14.825 143.775 34.175 143.775 58.025C144 69.05 139.95 79.4 132.525 87.5zM57.375 33.725C55.575 33.725 54 32.15 54 30.35V-5.65C54 -7.45 55.575 -9.025 57.375 -9.025S60.75 -7.45 60.75 -5.65V30.35C60.75 32.15 59.175 33.725 57.375 33.725zM72 45.65C70.2 45.65 68.625 44.075 68.625 42.275V6.275C68.625 4.475 70.2 2.9 72 2.9S75.375 4.475 75.375 6.275V42.275C75.375 44.3 73.8 45.65 72 45.65zM86.625 33.725C84.825 33.725 83.25 32.15 83.25 30.35V-5.65C83.25 -7.45 84.825 -9.025 86.625 -9.025S90 -7.45 90 -5.65V30.35C90 32.15 88.425 33.725 86.625 33.725z" />
    <glyph glyph-name="snowfall"
      unicode="&#xEA11;"
      horiz-adv-x="144" d="M139.725 47.225C138.825 48.8 136.8 49.475 135.225 48.8L114.3 38.45L80.1 57.8L111.825 76.25L132.75 66.125C133.2 65.9 133.65 65.675 134.325 65.675C135.675 65.675 136.8 66.35 137.475 67.475C138.375 69.05 137.475 71.075 135.9 71.975L119.025 80.075L132.75 87.95C134.325 88.85 135 90.875 133.875 92.45C132.975 94.025 130.95 94.7 129.375 93.575L115.65 85.7L117 103.925C117.225 105.95 115.65 107.75 113.85 107.75C112.05 107.975 110.475 106.4 110.25 104.6L108.675 81.875L76.95 63.65V100.55L96.3 113.6C97.875 114.725 98.325 116.75 97.2 118.325C96.075 119.9 94.05 120.35 92.475 119.225L76.95 108.65V124.625C76.95 126.425 75.375 128 73.575 128S70.2 126.425 70.2 124.625V108.65L55.125 119C53.55 120.125 51.525 119.675 50.4 118.1C49.5 116.525 49.725 114.5 51.3 113.375L70.2 100.55V63.2L34.875 83L33.075 105.95C32.85 107.75 31.275 109.325 29.475 109.1C27.675 108.875 26.325 107.3 26.325 105.5L27.9 87.275L14.175 95.15C12.6 96.05 10.575 95.6 9.675 93.8C8.775 92.225 9.225 90.2 11.025 89.3L24.75 81.425L7.875 73.1C6.3 72.2 5.625 70.175 6.3 68.6C6.975 67.475 8.1 66.8 9.225 66.8C9.675 66.8 10.35 67.025 10.8 67.25L31.725 77.6L66.6 57.8L29.7 36.425L8.775 46.55C7.2 47.45 5.175 46.55 4.275 44.975S4.275 41.375 5.85 40.475L22.725 32.375L10.8 25.4C9.225 24.5 8.55 22.475 9.675 20.9C10.35 19.775 11.475 19.325 12.6 19.325C13.275 19.325 13.725 19.55 14.4 19.775L26.325 26.75L24.75 8.075C24.525 6.275 26.1 4.7 27.9 4.475H28.125C29.925 4.475 31.275 5.825 31.5 7.625L33.075 30.35L70.2 51.95V9.425L50.85 -3.625C49.275 -4.75 48.825 -6.775 49.95 -8.35C50.625 -9.25 51.75 -9.925 52.65 -9.925C53.325 -9.925 54 -9.7 54.45 -9.25L69.975 1.325V-12.4C69.975 -14.2 71.55 -15.775 73.35 -15.775S76.725 -14.2 76.725 -12.4V1.55L91.8 -8.8C92.475 -9.25 93.15 -9.475 93.6 -9.475C94.725 -9.475 95.85 -9.025 96.3 -7.9C97.425 -6.325 96.975 -4.3 95.4 -3.175L76.5 9.65V51.725L110.475 32.6L112.275 9.875C112.5 8.075 113.85 6.725 115.65 6.725H115.875C117.675 6.95 119.025 8.525 119.025 10.325L117.45 28.55L129.6 21.8C130.05 21.575 130.725 21.35 131.175 21.35C132.3 21.35 133.425 22.025 134.1 23.15C135 24.725 134.55 26.75 132.75 27.65L120.825 34.4L137.475 42.725C139.95 43.625 140.625 45.65 139.725 47.225z" />
    <glyph glyph-name="sun-rain"
      unicode="&#xEA12;"
      horiz-adv-x="144" d="M114.525 68.375C114.3 68.375 114.075 68.6 114.075 68.825C109.8 78.05 100.35 84.125 90 84.125C79.425 84.125 69.75 77.825 65.475 68.15C60.075 69.275 54.45 68.6 49.275 66.35C41.4 62.75 35.55 55.325 34.2 47C33.075 39.575 35.1 31.925 40.05 26.3C45 20.45 52.425 17.075 60.075 17.075H110.475C124.425 17.075 136.35 27.2 137.475 40.25C139.05 54.2 128.7 67.025 114.525 68.375zM130.95 40.925C130.05 31.25 121.05 23.825 110.7 23.825H60.3C54.45 23.825 49.05 26.3 45.225 30.575C41.625 34.85 40.05 40.25 40.95 45.875C41.85 51.95 46.125 57.575 51.975 60.05C54.675 61.175 57.375 61.85 60.3 61.85C61.65 61.85 63 61.625 64.125 61.4C67.275 60.725 70.65 62.525 72 65.45C74.925 72.65 82.125 77.15 90 77.15C97.65 77.15 104.625 72.65 107.775 65.9C108.9 63.425 111.15 61.85 113.625 61.625C124.425 60.725 132.075 51.5 130.95 40.925zM37.35 75.8C39.15 76.475 40.05 78.275 39.6 80.075C39.15 81.425 38.925 83 38.925 84.35C38.925 92.225 45.45 98.525 53.55 98.525C58.275 98.525 62.775 96.275 65.475 92.45C66.6 90.875 68.625 90.65 70.2 91.55C71.775 92.675 72 94.7 71.1 96.275C67.05 101.9 60.525 105.275 53.55 105.275C41.85 105.275 32.175 95.825 32.175 84.35C32.175 82.1 32.625 80.075 33.3 77.825C33.75 76.475 35.1 75.575 36.45 75.575C36.45 75.575 36.9 75.575 37.35 75.8zM55.575 117.65C57.375 117.65 58.95 119.225 58.95 121.025V124.625C58.95 126.425 57.375 128 55.575 128S52.2 126.425 52.2 124.625V121.025C52.2 119.225 53.55 117.65 55.575 117.65zM84.825 105.05C85.725 105.05 86.625 105.275 87.075 105.95L90.675 109.55C92.025 110.9 92.025 112.925 90.675 114.275C89.325 115.625 87.3 115.625 85.95 114.275L82.35 110.675C81 109.325 81 107.3 82.35 105.95C83.025 105.275 83.925 105.05 84.825 105.05zM13.275 83H9.45C7.65 83 6.075 81.425 6.075 79.625S7.65 76.25 9.45 76.25H13.05C14.85 76.25 16.425 77.825 16.425 79.625S15.075 83 13.275 83zM24.75 114.275C23.4 115.625 21.375 115.625 20.025 114.275C18.675 112.925 18.675 110.9 20.025 109.55L23.625 105.95C24.3 105.275 25.2 105.05 25.875 105.05C26.775 105.05 27.675 105.5 28.35 106.175C29.7 107.525 29.7 109.55 28.35 110.9L24.75 114.275zM58.275 1.325C56.475 2 54.675 0.875 54 -0.925L50.4 -11.5C49.725 -13.3 50.85 -15.1 52.65 -15.775C53.1 -16 53.325 -16 53.775 -16C55.125 -16 56.475 -15.1 56.925 -13.75L60.3 -3.175C60.975 -1.15 60.075 0.65 58.275 1.325zM84.6 1.325C82.8 2 81 0.875 80.325 -0.925L76.95 -11.5C76.275 -13.3 77.4 -15.1 79.2 -15.775C79.65 -16 79.875 -16 80.325 -16C81.675 -16 83.025 -15.1 83.475 -13.75L86.85 -3.175C87.525 -1.15 86.4 0.65 84.6 1.325zM111.15 1.325C109.35 2 107.55 0.875 106.875 -0.925L103.5 -11.5C102.825 -13.3 103.95 -15.1 105.75 -15.775C106.2 -16 106.425 -16 106.875 -16C108.225 -16 109.575 -15.1 110.025 -13.75L113.4 -3.175C113.85 -1.15 112.95 0.65 111.15 1.325z" />
    <glyph glyph-name="sun"
      unicode="&#xEA13;"
      horiz-adv-x="144" d="M72 87.275C54.675 87.275 40.725 73.325 40.725 56S54.675 24.725 72 24.725S103.275 38.675 103.275 56S89.325 87.275 72 87.275zM72 31.475C58.5 31.475 47.475 42.5 47.475 56S58.5 80.525 72 80.525S96.525 69.5 96.525 56S85.5 31.475 72 31.475zM72 108.875C73.8 108.875 75.375 110.45 75.375 112.25V124.625C75.375 126.425 73.8 128 72 128S68.625 126.425 68.625 124.625V112.25C68.625 110.225 70.2 108.875 72 108.875zM72 3.125C70.2 3.125 68.625 1.55 68.625 -0.25V-12.625C68.625 -14.425 70.2 -16 72 -16S75.375 -14.425 75.375 -12.625V-0.25C75.375 1.775 73.8 3.125 72 3.125zM117.225 105.95L109.35 98.075C108 96.725 108 94.7 109.35 93.35C110.025 92.675 110.925 92.45 111.825 92.45S113.625 92.675 114.3 93.35L122.175 101.225C123.525 102.575 123.525 104.6 122.175 105.95C120.6 107.3 118.575 107.3 117.225 105.95zM29.7 18.65L21.825 10.775C20.475 9.425 20.475 7.4 21.825 6.05C22.5 5.375 23.4 5.15 24.3 5.15S26.1 5.375 26.775 6.05L34.65 13.925C36 15.275 36 17.3 34.65 18.65C33.3 19.775 31.05 19.775 29.7 18.65zM140.625 59.375H128.25C126.45 59.375 124.875 57.8 124.875 56S126.45 52.625 128.25 52.625H140.625C142.425 52.625 144 54.2 144 56S142.425 59.375 140.625 59.375zM15.75 59.375H3.375C1.575 59.375 0 57.8 0 56S1.575 52.625 3.375 52.625H15.75C17.55 52.625 19.125 54.2 19.125 56S17.775 59.375 15.75 59.375zM114.3 18.65C112.95 20 110.925 20 109.575 18.65C108.225 17.3 108.225 15.275 109.575 13.925L117.45 6.05C118.125 5.375 119.025 5.15 119.925 5.15S121.725 5.375 122.4 6.05C123.75 7.4 123.75 9.425 122.4 10.775L114.3 18.65zM26.775 105.95C25.425 107.3 23.4 107.3 22.05 105.95C20.7 104.6 20.7 102.575 22.05 101.225L29.925 93.35C30.6 92.675 31.5 92.45 32.4 92.45S34.2 92.675 34.875 93.35C36.225 94.7 36.225 96.725 34.875 98.075L26.775 105.95z" />
    <glyph glyph-name="thunder-alt"
      unicode="&#xEA14;"
      horiz-adv-x="144" d="M132.525 75.575C126 82.55 117 87.5 107.55 88.85C102.6 97.4 94.725 103.7 85.725 106.85C81.675 108.425 77.175 109.1 72.225 109.1C49.5 109.1 31.05 90.875 30.6 68.375C13.5 67.025 0 52.85 0 35.75C0 17.525 14.4 3.125 32.625 2.9H100.8C124.65 2.9 144 22.25 144 46.1C144 56.9 139.95 67.475 132.525 75.575zM100.575 9.65H32.625C18 9.65 6.75 21.125 6.75 35.75S18.225 61.625 32.85 61.625H33.975C35.775 61.625 37.35 63.2 37.35 65V67.475C37.35 86.6 52.875 102.35 72.225 102.35C76.275 102.35 80.1 101.675 83.25 100.325C91.35 97.4 98.1 91.775 102.375 83.9C102.825 83 103.95 82.325 105.075 82.1C113.625 81.2 121.95 77.15 127.575 70.85C133.875 64.1 137.25 55.325 137.25 46.1C137.25 26.075 120.825 9.65 100.575 9.65zM83.475 55.325H69.75L84.15 74C85.275 75.575 85.05 77.6 83.475 78.725S79.875 79.625 78.75 78.05L61.2 55.325C60.3 53.975 60.075 52.4 60.75 50.825S63 48.575 64.575 48.575H78.075L62.55 30.125C61.425 28.775 61.65 26.525 63 25.4C63.675 24.95 64.35 24.725 65.25 24.725S67.275 25.175 67.95 25.85L87.075 48.575C88.2 49.925 88.425 51.5 87.75 53.075C86.625 54.425 85.275 55.325 83.475 55.325z" />
    <glyph glyph-name="thunder"
      unicode="&#xEA15;"
      horiz-adv-x="144" d="M132.525 90.65C126 97.625 117 102.575 107.55 103.925C102.6 112.475 94.725 118.775 85.725 121.925C81.675 123.5 77.175 124.175 72.225 124.175C49.5 124.175 30.825 105.95 30.6 83.45C13.5 82.325 0 68.15 0 50.825C0 32.6 14.4 18.2 32.625 18.2H40.5C42.3 18.2 43.875 19.775 43.875 21.575S42.3 24.95 40.5 24.95H32.625C18 24.95 6.75 36.425 6.75 50.825S18.225 76.7 32.85 76.7H33.975C35.775 76.7 37.35 78.275 37.35 80.075V82.55C37.35 101.675 52.875 117.2 72.225 117.2C76.275 117.2 80.1 116.525 83.25 115.175C91.35 112.25 98.1 106.625 102.375 98.75C102.825 97.85 103.95 97.175 105.075 96.95C113.625 96.05 121.95 92 127.575 85.7C133.875 78.95 137.25 70.175 137.25 60.95C137.25 40.925 120.825 24.5 100.575 24.5C98.775 24.5 97.2 22.925 97.2 21.125S98.775 17.75 100.575 17.75C124.425 17.75 144 37.1 144 60.95C144 72.2 139.95 82.55 132.525 90.65zM115.425 62.075C114.975 63.2 113.625 64.1 112.275 64.1H94.05L101.925 78.725C102.6 79.85 102.375 80.975 101.925 82.1C101.25 83.225 100.125 83.675 99 83.675H65.025C63.675 83.675 62.55 83 61.875 81.65L44.325 42.5C43.875 41.375 43.875 40.25 44.55 39.35C45.225 38.45 46.35 37.775 47.475 37.775H66.6L52.875 -7.675C52.425 -9.25 53.1 -10.825 54.45 -11.725C54.9 -11.95 55.575 -12.175 56.025 -12.175C56.925 -12.175 58.05 -11.725 58.725 -10.825L115.2 58.475C115.875 59.375 115.875 60.95 115.425 62.075zM64.125 6.5L74.25 40.025C74.475 41.15 74.475 42.05 73.8 42.95C73.125 43.85 72.225 44.3 71.1 44.3H52.65L67.05 76.7H93.375L85.5 62.075C84.825 60.95 85.05 59.825 85.5 58.7C86.175 57.575 87.3 57.125 88.425 57.125H105.3L64.125 6.5z" />
    <glyph glyph-name="umbrella-alt"
      unicode="&#xEA16;"
      horiz-adv-x="144" d="M75.375 118.1V124.625C75.375 126.425 73.8 128 72 128S68.625 126.425 68.625 124.625V118.1C30.375 116.3 0 84.8 0 46.1C0 44.975 0.675 43.85 1.8 43.175C2.925 42.5 4.275 42.5 5.175 43.175L20.7 52.625C24.075 54.65 28.35 54.65 31.725 52.625L40.05 47.45C45.675 44.075 52.65 44.075 58.05 47.45L66.375 52.625C67.05 53.075 67.725 53.3 68.4 53.525V-12.85C68.4 -14.65 69.975 -16.225 71.775 -16.225S75.15 -14.65 75.15 -12.85V53.75C75.825 53.525 76.725 53.3 77.4 52.85L85.725 47.675C91.35 44.3 98.325 44.3 103.725 47.675L112.05 52.85C115.425 54.875 119.7 54.875 123.075 52.85L138.6 43.4C139.05 43.175 139.725 42.95 140.4 42.95C141.075 42.95 141.525 43.175 141.975 43.4C143.1 44.075 143.775 45.2 143.775 46.325C144 84.8 113.625 116.3 75.375 118.1zM126.9 58.475C121.275 61.85 114.3 61.85 108.9 58.475L100.575 53.3C97.2 51.275 92.925 51.275 89.55 53.3L81 58.475C75.375 61.85 68.625 61.85 63 58.475L54.675 53.3C51.3 51.275 47.025 51.275 43.65 53.3L35.325 58.475C32.625 60.275 29.475 60.95 26.325 60.95S20.025 60.05 17.325 58.475L7.2 52.175C10.125 85.475 38.025 111.575 72 111.575C105.975 111.575 133.875 85.475 137.025 52.4L126.9 58.475z" />
    <glyph glyph-name="umbrella-rain-alt"
      unicode="&#xEA17;"
      horiz-adv-x="144" d="M75.375 92.225V96.725C75.375 98.525 73.8 100.1 72 100.1S68.625 98.525 68.625 96.725V92.225C37.575 90.425 12.825 65.225 12.825 34.175C12.825 33.05 13.5 31.925 14.625 31.25C15.75 30.575 16.875 30.575 18 31.25L30.6 38.9C33.075 40.475 36.45 40.475 38.925 38.9L45.675 34.85C50.4 31.925 56.25 31.925 60.975 34.85L67.725 38.9C68.175 39.125 68.4 39.35 68.85 39.575C68.625 39.125 68.4 38.675 68.4 38V-12.625C68.4 -14.425 69.975 -16 71.775 -16S75.15 -14.425 75.15 -12.625V38C75.15 38.675 74.925 39.125 74.7 39.575C75.15 39.35 75.6 39.125 75.825 38.9L82.575 34.85C87.3 31.925 93.15 31.925 97.875 34.85L104.625 38.9C107.1 40.475 110.475 40.475 112.95 38.9L126 31.25C126.45 31.025 127.125 30.8 127.8 30.8C128.475 30.8 128.925 31.025 129.375 31.25C130.5 31.925 131.175 33.05 131.175 34.175C131.175 65.225 106.425 90.65 75.375 92.225zM116.775 44.75C112.05 47.675 106.2 47.675 101.475 44.75L94.725 40.7C92.25 39.125 88.875 39.125 86.4 40.7L79.65 44.75C74.925 47.675 69.075 47.675 64.35 44.75L57.6 40.7C55.125 39.125 51.75 39.125 49.275 40.7L42.525 44.75C40.275 46.1 37.575 46.775 34.875 46.775C32.175 46.775 29.475 46.1 27.225 44.75L20.025 40.475C22.95 65.9 45.225 85.7 72 85.7S121.05 65.9 123.975 40.475L116.775 44.75zM3.375 128C1.575 128 0 126.425 0 124.625V112.925C0 111.125 1.575 109.55 3.375 109.55S6.75 111.125 6.75 112.925V124.625C6.75 126.425 5.175 128 3.375 128zM37.8 109.55C39.6 109.55 41.175 111.125 41.175 112.925V124.625C41.175 126.425 39.6 128 37.8 128S34.425 126.425 34.425 124.625V112.925C34.425 111.125 35.775 109.55 37.8 109.55zM72 109.55C73.8 109.55 75.375 111.125 75.375 112.925V124.625C75.375 126.425 73.8 128 72 128S68.625 126.425 68.625 124.625V112.925C68.625 111.125 70.2 109.55 72 109.55zM106.425 109.55C108.225 109.55 109.8 111.125 109.8 112.925V124.625C109.8 126.425 108.225 128 106.425 128S103.05 126.425 103.05 124.625V112.925C103.05 111.125 104.4 109.55 106.425 109.55zM140.625 128C138.825 128 137.25 126.425 137.25 124.625V112.925C137.25 111.125 138.825 109.55 140.625 109.55S144 111.125 144 112.925V124.625C144 126.425 142.425 128 140.625 128z" />
    <glyph glyph-name="umbrella-rain"
      unicode="&#xEA18;"
      horiz-adv-x="144" d="M75.375 94.25V96.5C75.375 98.3 73.8 99.875 72 99.875S68.625 98.3 68.625 96.5V94.25C37.575 92.45 12.825 66.575 12.825 35.075C12.825 33.275 14.4 31.7 16.2 31.7H68.625V-12.85C68.625 -14.65 70.2 -16.225 72 -16.225S75.375 -14.65 75.375 -12.85V31.7H127.8C129.6 31.7 131.175 33.275 131.175 35.075C131.175 66.575 106.425 92.45 75.375 94.25zM19.8 38.45C21.375 65.9 44.325 87.725 72 87.725S122.625 65.9 124.2 38.675H19.8zM3.375 128.225C1.575 128.225 0 126.65 0 124.85V113.15C0 111.35 1.575 109.775 3.375 109.775S6.75 111.125 6.75 113.15V124.85C6.75 126.65 5.175 128.225 3.375 128.225zM37.8 109.775C39.6 109.775 41.175 111.35 41.175 113.15V124.85C41.175 126.65 39.6 128.225 37.8 128.225S34.425 126.65 34.425 124.85V113.15C34.425 111.125 35.775 109.775 37.8 109.775zM72 109.775C73.8 109.775 75.375 111.35 75.375 113.15V124.85C75.375 126.65 73.8 128.225 72 128.225S68.625 126.65 68.625 124.85V113.15C68.625 111.125 70.2 109.775 72 109.775zM106.425 109.775C108.225 109.775 109.8 111.35 109.8 113.15V124.85C109.8 126.65 108.225 128.225 106.425 128.225S103.05 126.65 103.05 124.85V113.15C103.05 111.125 104.4 109.775 106.425 109.775zM140.625 128.225C138.825 128.225 137.25 126.65 137.25 124.85V113.15C137.25 111.35 138.825 109.775 140.625 109.775S144 111.125 144 113.15V124.85C144 126.65 142.425 128.225 140.625 128.225z" />
    <glyph glyph-name="umbrella"
      unicode="&#xEA19;"
      horiz-adv-x="144" d="M75.375 118.1V124.625C75.375 126.425 73.8 128 72 128S68.625 126.425 68.625 124.625V118.1C30.375 116.3 0 84.8 0 46.1C0 44.3 1.575 42.725 3.375 42.725H68.625V-12.625C68.625 -14.425 70.2 -16 72 -16S75.375 -14.425 75.375 -12.625V42.725H140.625C142.425 42.725 144 44.3 144 46.1C144 84.8 113.625 116.3 75.375 118.1zM6.75 49.475C8.55 83.9 37.125 111.575 72 111.575S135.45 84.125 137.25 49.7H6.75z" />
    <glyph glyph-name="water-drops"
      unicode="&#xEA1A;"
      horiz-adv-x="144" d="M67.05 89.3C65.925 90.875 65.025 92.45 64.125 93.575L42.525 126.425C41.85 127.325 40.725 128 39.6 128S37.35 127.325 36.675 126.425L14.175 91.55C12.825 89.525 11.25 87.5 10.125 85.475C7.2 80.525 4.05 75.35 2.025 69.275C-2.25 56 0.45 43.85 9.675 33.95C17.55 25.4 29.025 20.45 40.275 20.45C41.625 20.45 42.75 20.45 44.1 20.675C56.025 21.8 67.05 28.325 73.575 38.225C78.975 46.325 80.775 57.125 78.75 67.025C76.725 74.675 72.225 81.65 67.05 89.3zM67.725 42.05C62.325 33.725 53.1 28.325 43.425 27.425C33.075 26.3 22.05 30.575 14.625 38.675C6.975 46.775 4.95 56.225 8.55 67.25C10.35 72.65 13.275 77.375 15.975 82.1C17.1 83.9 18.45 85.925 19.8 87.725L39.825 118.325L58.725 89.75C59.625 88.4 60.525 87.05 61.65 85.475C65.7 79.625 70.425 72.65 72.225 65.675C73.8 57.575 72.225 48.575 67.725 42.05zM143.325 17.3C141.975 22.7 138.825 27.65 135.45 32.825C134.775 33.95 134.1 34.85 133.425 35.75L118.575 58.25C117.9 59.15 117 59.825 115.65 59.825C114.525 59.825 113.4 59.15 112.725 58.25L97.2 34.4C96.3 33.05 95.175 31.7 94.5 30.35C92.475 26.975 90.225 23.15 88.875 19.1C85.725 9.65 87.75 0.875 94.5 -6.1C100.125 -12.175 108.225 -15.55 116.1 -15.55C117 -15.55 117.9 -15.55 118.8 -15.325C127.35 -14.65 135 -9.925 139.725 -2.725C143.55 2.45 144.9 10.1 143.325 17.3zM134.1 0.425C130.5 -4.975 124.65 -8.575 118.125 -9.025C111.375 -9.7 104.175 -7 99.225 -1.6C94.275 3.575 92.925 9.875 95.175 16.85C96.3 20.45 98.1 23.6 100.125 26.75C100.8 27.875 101.7 29.225 102.6 30.575L115.425 50.15L127.575 31.7C128.25 30.8 128.7 29.9 129.375 29C132.075 25.175 135.225 20.225 136.35 15.725C137.925 10.55 136.8 4.7 134.1 0.425zM115.875 71.975H117.9C124.2 72.65 130.05 76.025 133.65 81.425C136.575 85.7 137.475 91.55 136.35 96.725C135.225 101 132.525 105.05 130.5 107.975C130.05 108.875 129.375 109.55 129.15 110.225L118.575 126.2C117.9 127.325 116.775 128 115.65 128S113.4 127.325 112.725 126.425L101.7 109.325C101.025 108.425 100.35 107.3 99.675 106.4C98.1 103.925 96.525 101.225 95.625 98.075C93.375 91.1 94.9500000000001 84.35 99.675 79.175C103.95 74.675 110.025 71.975 115.875 71.975zM101.925 96.05C102.825 98.525 103.95 100.775 105.3 103.025C105.75 103.925 106.425 104.825 107.1 105.725L115.425 118.55L123.3 106.625C123.75 105.95 124.2 105.5 124.65 104.6C126.45 101.9 128.7 98.525 129.6 95.6C130.275 92.225 129.6 88.175 127.8 85.475A14.6025 14.6025 0 0 0 117.225 79.175C112.725 78.725 107.775 80.525 104.625 84.125C101.475 87.275 100.575 91.325 101.925 96.05z" />
    <glyph glyph-name="wind-cloud"
      unicode="&#xEA1B;"
      horiz-adv-x="144" d="M112.275 104.15C111.375 104.15 110.7 104.825 110.475 105.5C104.625 118.325 92.025 126.65 77.85 126.65C63.225 126.65 50.4 117.875 44.775 104.6C44.55 103.925 43.65 103.475 42.975 103.7C35.55 105.275 27.9 104.375 20.7 101.225C9.9 96.275 2.25 86.15 0.45 74.45C-1.125 64.1 1.8 53.525 8.55 45.65S25.2 33.275 35.55 33.275C37.35 33.275 38.925 34.85 38.925 36.65S37.35 40.025 35.55 40.025C27 40.025 19.125 43.625 13.5 50.15C7.875 56.675 5.625 65 6.975 73.55C8.325 83 14.625 91.325 23.4 95.15C29.25 97.85 35.325 98.525 41.4 97.175C45.225 96.275 49.275 98.525 50.85 102.125C55.35 112.925 65.925 120.125 77.625 120.125C89.1 120.125 99.45 113.375 104.175 103.025C105.525 100.1 108.225 98.075 111.375 97.85C127.35 96.05 138.6 82.1 137.025 66.125C136.8 63.875 136.35 61.625 135.45 59.375C134.775 57.575 135.675 55.775 137.475 55.1C139.275 54.425 141.075 55.325 141.75 57.125C142.65 59.825 143.325 62.525 143.55 65.45C145.8 84.8 131.85 101.9 112.275 104.15zM126.225 41.6C126.225 48.8 120.375 54.425 113.4 54.425C111.6 54.425 110.025 52.85 110.025 51.05S111.6 47.675 113.4 47.675C116.775 47.675 119.475 44.975 119.475 41.6S116.775 35.525 113.4 35.525H59.175C57.375 35.525 55.8 33.95 55.8 32.15S57.375 28.775 59.175 28.775H113.625C120.6 28.775 126.225 34.625 126.225 41.6zM125.55 9.65H71.325C69.525 9.65 67.95 8.075 67.95 6.275S69.525 2.9 71.325 2.9H125.775C129.15 2.9 131.85 0.2 131.85 -3.175C131.85 -4.975 131.175 -6.55 129.825 -7.675C128.475 -9.025 128.25 -11.05 129.6 -12.4C130.275 -13.075 131.175 -13.525 132.075 -13.525C132.975 -13.525 133.65 -13.3 134.325 -12.625C137.025 -10.15 138.6 -6.775 138.6 -3.175C138.375 3.8 132.75 9.65 125.55 9.65z" />
    <glyph glyph-name="wind-sun"
      unicode="&#xEA1C;"
      horiz-adv-x="144" d="M75.6 87.725C72.675 88.625 69.525 89.075 66.6 89.075C48.6 89.075 33.975 74.45 33.975 56.45S48.6 23.825 66.6 23.825C68.85 23.825 71.1 24.05 73.125 24.5C74.925 24.95 76.05 26.75 75.825 28.55S73.575 31.475 71.775 31.25C69.975 30.8 68.4 30.8 66.6 30.8C52.2 30.8 40.725 42.5 40.725 56.675C40.725 71.075 52.425 82.55 66.6 82.55C69.075 82.55 71.55 82.1 73.8 81.65C75.6 81.2 77.4 82.1 78.075 83.9C78.3 85.25 77.4 87.275 75.6 87.725zM64.575 103.025C66.375 103.025 67.95 104.6 67.95 106.4V118.1C67.95 119.9 66.375 121.475 64.575 121.475S61.2 119.9 61.2 118.1V106.4C61.2 104.375 62.775 103.025 64.575 103.025zM64.575 8.975C62.775 8.975 61.2 7.4 61.2 5.6V-6.1C61.2 -7.9 62.775 -9.475 64.575 -9.475S67.95 -7.9 67.95 -6.1V5.6C67.95 7.625 66.375 8.975 64.575 8.975zM26.775 22.925L18.45 14.6C17.1 13.25 17.1 11.225 18.45 9.875C19.125 9.2 20.025 8.75 20.7 8.75C21.6 8.75 22.5 8.975 23.175 9.65L31.5 17.975C32.85 19.325 32.85 21.35 31.5 22.7C30.15 24.05 27.9 24.05 26.775 22.925zM18.45 56C18.45 57.8 16.875 59.375 15.075 59.375H3.375C1.575 59.375 0 57.8 0 56S1.575 52.625 3.375 52.625H15.075C16.875 52.625 18.45 54.2 18.45 56zM23.175 102.125C21.825 103.475 19.8 103.475 18.45 102.125C17.1 100.775 17.1 98.75 18.45 97.4L26.775 89.075C27.45 88.4 28.35 88.175 29.25 88.175C30.15 88.175 31.05 88.4 31.725 89.075C33.075 90.425 33.075 92.45 31.725 93.8L23.175 102.125zM130.5 95.6C128.7 95.6 127.125 94.025 127.125 92.225S128.7 88.85 130.5 88.85C134.325 88.85 137.25 85.7 137.25 82.1S134.1 75.35 130.5 75.35H94.725C92.925 75.35 91.35 73.775 91.35 71.975S92.925 68.6 94.725 68.6H130.5C137.925 68.6 144 74.675 144 82.1S137.925 95.6 130.5 95.6zM123.75 36.2H94.725C92.925 36.2 91.35 34.625 91.35 32.825S92.925 29.45 94.725 29.45H123.75C127.575 29.45 130.5 26.3 130.5 22.7S127.35 15.95 123.75 15.95C121.95 15.95 120.375 14.375 120.375 12.575S121.95 9.2 123.75 9.2C131.175 9.2 137.25 15.275 137.25 22.7S131.175 36.2 123.75 36.2zM131.85 52.4C131.85 54.2 130.275 55.775 128.475 55.775H85.275C83.475 55.775 81.9 54.2 81.9 52.4S83.475 49.025 85.275 49.025H128.475C130.5 49.025 131.85 50.375 131.85 52.4z" />
    <glyph glyph-name="cloud-alt-1"
      unicode="&#xEA1D;"
      horiz-adv-x="144" d="M114.525 69.5C111.15 69.5 108 68.825 104.85 67.7C103.95 87.275 88.2 103.025 68.85 103.025C55.125 103.025 42.75 95.15 36.675 82.775H36.225C16.2 83 0 66.35 0 45.875C0 25.4 16.2 8.975 36 8.975H114.525C130.725 8.975 144 22.475 144 39.35C144 55.775 130.725 69.5 114.525 69.5zM114.525 15.725H36C19.8 15.725 6.75 29.225 6.75 45.875S19.8 76.25 36 76.25C36.9 76.25 37.575 76.25 38.25 76.025C39.825 75.8 40.95 76.7 41.625 78.05C46.35 89.075 56.925 96.275 68.625 96.275C84.825 96.275 97.875 82.775 97.875 66.125C97.875 64.775 97.875 63.875 97.65 62.975C97.425 61.625 98.1 60.275 99 59.6C100.125 58.925 101.475 58.925 102.6 59.6C106.2 61.85 110.25 62.975 114.3 62.975C127.125 62.75 137.25 52.175 137.25 39.125C137.25 26.3 127.125 15.725 114.525 15.725z" />
    <glyph glyph-name="night-wind"
      unicode="&#xEA1E;"
      horiz-adv-x="144" d="M101.025 -2.5C96.3 -4.75 91.35 -6.55 86.175 -7.675C51.525 -15.325 17.55 5.825 9 40.475C8.1 44.525 7.425 48.8 7.2 53.075C5.85 76.475 18.225 99.65 38.7 111.8C49.5 118.325 61.425 121.475 74.025 121.25C65.25 111.8 59.625 99.875 57.825 87.275C57.6 85.475 58.95 83.675 60.75 83.45C62.55 83.225 64.35 84.575 64.575 86.375C66.375 98.3 72 109.55 80.55 118.1C82.125 119.675 82.8 122.15 81.9 124.175C81 126.2 79.2 127.775 76.95 127.775C62.325 128.675 48.15 125.3 35.325 117.425C12.825 103.925 -0.675 78.5 0.675 52.625C0.9 47.9 1.575 43.175 2.7 38.675C10.575 5.825 39.6 -16 72 -16C77.175 -16 82.35 -15.55 87.75 -14.2C93.375 -13.075 98.775 -11.05 103.95 -8.575C105.525 -7.675 106.425 -5.65 105.525 -4.075S102.825 -1.825 101.025 -2.5zM120.825 80.525C125.325 80.525 129.15 76.7 129.15 72.2S125.325 63.875 120.825 63.875H54C52.2 63.875 50.625 62.3 50.625 60.5S52.2 57.125 54 57.125H120.825A15.075 15.075 0 0 1 120.825 87.275C119.025 87.275 117.45 85.7 117.45 83.9S119.025 80.525 120.825 80.525zM67.5 44.075C65.7 44.075 64.125 42.5 64.125 40.7S65.7 37.325 67.5 37.325H113.4C115.2 37.325 116.775 38.9 116.775 40.7S115.2 44.075 113.4 44.075H67.5zM128.7 24.05H61.875C60.075 24.05 58.5 22.475 58.5 20.675S60.075 17.3 61.875 17.3H128.7C133.2 17.3 137.025 13.475 137.025 8.975C137.025 6.725 136.125 4.475 134.325 2.9C132.975 1.55 132.75 -0.475 134.1 -1.825C134.775 -2.5 135.675 -2.95 136.575 -2.95C137.475 -2.95 138.15 -2.725 138.825 -2.05C141.975 0.875 143.775 4.925 143.775 8.975C143.775 17.3 137.025 24.05 128.7 24.05z" />
    <glyph glyph-name="moon"
      unicode="&#xEA1F;"
      horiz-adv-x="144" d="M137.025 19.775C135.9 21.8 133.65 22.925 131.4 22.7C103.05 20 77.175 38.675 71.1 66.575C67.05 85.25 72.675 104.6 86.175 118.1C87.75 119.675 88.425 122.15 87.525 124.175C86.625 126.2 84.825 127.775 82.575 127.775C67.95 128.675 53.775 125.3 40.95 117.425C18.45 103.925 4.95 78.5 6.3 52.625C7.425 31.25 17.775 11.45 34.65 -1.375C47.25 -10.825 62.55 -16 78.3 -16C83.475 -16 88.65 -15.55 93.825 -14.425C111.15 -10.6 126.45 -0.7 136.8 13.7C138.15 15.725 138.15 17.975 137.025 19.775zM92.25 -7.675C73.575 -11.725 54 -7.45 38.7 4.25C23.4 15.725 13.95 33.725 13.05 53.075C11.7 76.475 24.075 99.65 44.55 111.8C54.9 118.1 66.15 121.25 78.075 121.25H79.875C65.925 106.175 60.075 85.25 64.575 65.225C71.325 34.85 99 13.925 129.825 15.95C120.375 3.8 107.325 -4.525 92.25 -7.675z" />
    <glyph glyph-name="beach-chair"
      unicode="&#xEA20;"
      horiz-adv-x="144" d="M140.625 20H63V60.275C63 62.075 61.425 63.65 59.625 63.65S56.25 62.075 56.25 60.275V20H43.2L12.15 56.225C11.025 57.575 8.775 57.8 7.425 56.675C6.075 55.55 5.85 53.3 6.975 51.95L33.975 20H13.95L0.45 -0.25C-0.675 -1.825 -0.225 -3.85 1.35 -4.975C2.025 -5.425 2.475 -5.65 3.15 -5.65C4.275 -5.65 5.4 -5.2 5.85 -4.075L17.55 13.25H55.8V-2.05C55.8 -3.85 57.375 -5.425 59.175 -5.425S62.55 -3.85 62.55 -2.05V13.25H112.05C112.05 12.8 112.275 12.35 112.725 12.125L125.1 -4.3C125.775 -5.2 126.675 -5.65 127.8 -5.65C128.475 -5.65 129.15 -5.425 129.825 -4.975C131.4 -3.85 131.625 -1.825 130.5 -0.25L120.15 13.25H140.175C141.975 13.25 143.55 14.825 143.55 16.625S142.425 20 140.625 20zM14.4 69.95C14.85 69.5 15.3 69.5 15.975 69.5C17.1 69.5 18.225 69.95 18.675 70.85L25.65 77.6C28.575 80.525 32.625 80.525 35.55 77.6C40.95 72.2 49.275 72.2 54.9 77.6C57.825 80.525 61.875 80.525 64.8 77.6C70.2 72.2 78.525 72.2 83.925 77.6C86.85 80.525 90.9 80.525 93.825 77.6L101.025 70.4C101.925 69.5 103.5 69.275 104.625 69.725C105.975 70.175 106.65 71.525 106.65 72.875C106.65 98.75 85.5 119.675 59.625 119.675C33.75 119.675 12.825 98.975 12.6 73.55C12.375 72.425 12.825 71.3 13.5 70.625C13.725 70.175 13.95 69.95 14.4 69.95zM59.625 112.925C78.75 112.925 94.725 99.65 98.775 81.875L98.325 82.325C92.925 87.725 84.6 87.725 78.975 82.325C76.05 79.4 72 79.4 69.075 82.325C63.675 87.725 55.35 87.725 49.725 82.325C46.8 79.4 42.75 79.4 39.825 82.325C37.125 85.025 33.525 86.375 30.15 86.375S23.175 85.025 20.475 82.325L20.25 82.1C24.525 99.875 40.5 112.925 59.625 112.925z" />
    <glyph glyph-name="beach"
      unicode="&#xEA21;"
      horiz-adv-x="144" d="M142.2 -9.7C106.425 9.425 77.625 13.925 56.7 12.575V12.8L49.725 62.525C50.4 62.3 50.85 61.85 51.3 61.625C57.375 56.9 65.475 57.8 70.425 63.65C72.9 66.8 76.95 67.25 80.1 64.775L88.2 58.475C89.325 57.575 90.675 57.575 92.025 58.25C93.15 58.925 93.825 60.275 93.825 61.625C92.475 74.225 86.175 85.475 76.5 93.125C67.5 100.325 56.475 103.925 45 103.25L44.325 110C44.1 111.8 42.525 113.15 40.5 112.925C38.7 112.7 37.35 111.125 37.575 109.1L38.25 102.35C14.625 97.85 -2.025 75.8 0.225 51.5C0.225 50.375 0.675 49.475 1.575 48.575C1.8 48.35 2.25 48.125 2.475 48.125C2.925 47.9 3.375 47.9 3.6 47.9H4.05C5.175 48.125 6.075 48.8 6.525 49.7L12.6 57.35C15.075 60.5 19.125 60.95 22.275 58.475C28.35 53.75 36.675 54.65 41.4 60.725L42.75 62.075L49.725 12.575C44.55 11.9 39.825 11 35.775 9.875C12.6 2.9 1.35 -9.925 0.9 -10.375C-0.225 -11.725 -0.225 -13.975 1.125 -15.1S4.725 -16.225 5.85 -14.875C7.65 -12.85 49.05 32.375 139.05 -15.55C139.5 -15.775 140.175 -16 140.625 -16C141.75 -16 143.1 -15.325 143.55 -14.2C144.45 -12.625 143.775 -10.6 142.2 -9.7zM36.45 64.55C33.975 61.4 29.925 60.95 26.775 63.425C20.7 68.15 12.375 67.25 7.65 61.175L7.2 60.725C9.45 78.95 23.85 94.025 42.75 96.05C44.325 96.275 45.675 96.275 47.25 96.275C56.25 96.275 65.025 93.125 72.225 87.5C78.3 82.775 82.575 76.475 85.05 69.275L84.6 69.725C78.525 74.45 70.425 73.55 65.475 67.7C63 64.55 58.95 64.1 55.8 66.575C49.5 71.525 41.4 70.625 36.45 64.55zM121.95 83.9C134.1 83.9 144 93.8 144 105.95S134.1 128 121.95 128S99.9 118.1 99.9 105.95S109.8 83.9 121.95 83.9zM121.95 121.25C130.275 121.25 137.25 114.275 137.25 105.95S130.275 90.65 121.95 90.65S106.65 97.625 106.65 105.95S113.4 121.25 121.95 121.25z" />
    <glyph glyph-name="hot-air-baloon"
      unicode="&#xEA22;"
      horiz-adv-x="144" d="M103.275 28.1H87.75V49.475C102.375 55.775 112.725 70.175 112.725 87.05C112.725 109.775 94.5 128 72 128S31.275 109.775 31.275 87.275C31.275 70.4 41.625 55.775 56.25 49.7V28.325H40.95C39.15 28.325 37.575 26.75 37.575 24.95V5.6C37.575 -6.1 47.25 -15.775 58.95 -15.775H85.275C96.975 -15.775 106.65 -6.1 106.65 5.6V24.95C106.65 26.75 105.075 28.1 103.275 28.1zM105.975 87.275C105.975 70.625 93.825 56.675 77.85 53.75C85.275 62.975 89.55 74.9 89.55 87.275S85.275 111.575 78.075 120.8C94.05 117.875 105.975 103.925 105.975 87.275zM71.325 118.325C78.75 110.225 83.025 98.975 83.025 87.275C83.025 75.575 78.75 64.325 71.325 56.225C63.9 64.325 59.625 75.575 59.625 87.275C59.625 98.975 63.9 110.225 71.325 118.325zM38.025 87.275C38.025 103.25 49.275 116.75 64.125 120.35C56.925 111.35 52.875 99.425 52.875 87.275C52.875 75.125 56.925 63.2 64.125 54.2C49.05 57.8 38.025 71.075 38.025 87.275zM63 47.45C65.925 46.775 69.075 46.325 72 46.325C75.15 46.325 78.075 46.775 81 47.45V28.1H63V47.45zM99.9 5.375C99.9 -2.725 93.375 -9.25 85.275 -9.25H58.725C50.625 -9.25 44.1 -2.725 44.1 5.375V21.35H99.675V5.375z" />
    <glyph glyph-name="cable-car"
      unicode="&#xEA23;"
      horiz-adv-x="144" d="M144 125.075C143.775 126.875 141.975 128.225 140.175 127.775L2.925 105.05C1.125 104.825 -0.225 103.025 0.225 101.225C0.45 99.65 2.025 98.3 3.6 98.3H4.05L68.625 109.1V84.125H34.425C18.9 84.35 6.3 71.75 6.3 56.225V12.125C6.3 -3.4 18.9 -16 34.425 -16H109.8C125.325 -16 137.925 -3.4 137.925 12.125V56.225C137.925 71.75 125.325 84.35 109.8 84.35H75.375V110.45L141.075 121.25C142.875 121.475 144.225 123.275 144 125.075zM109.575 -9.25H34.425C22.725 -9.25 13.05 0.425 13.05 12.125V27.65H131.175V12.125C130.95 0.425 121.5 -9.25 109.575 -9.25zM130.95 56.225V34.4H13.05V56.225C13.05 67.925 22.725 77.6 34.425 77.6H109.8C121.5 77.6 130.95 67.925 130.95 56.225z" />
    <glyph glyph-name="suitcase-alt"
      unicode="&#xEA24;"
      horiz-adv-x="144" d="M105.525 96.275H94.275V118.325C94.5 123.725 90 128 84.6 128H59.4C54 128 49.5 123.725 49.5 118.325V96.275H38.25C33.975 96.275 30.375 92.675 30.375 88.4V8.525C30.375 4.25 33.975 0.65 38.25 0.65H43.2V-12.625C43.2 -14.425 44.775 -16 46.575 -16S49.95 -14.425 49.95 -12.625V-0.025V0.65H94.05V-12.625C94.05 -14.425 95.625 -16 97.425 -16S100.8 -14.425 100.8 -12.625V-0.025V0.65H105.75C110.025 0.65 113.625 4.25 113.625 8.525V88.4C113.4 92.675 109.8 96.275 105.525 96.275zM56.25 118.325C56.25 119.9 57.6 121.25 59.4 121.25H84.825C86.4 121.25 87.75 119.9 87.75 118.325V96.275H56.25V118.325zM106.65 8.525C106.65 7.85 106.2 7.4 105.525 7.4H38.475C37.8 7.4 37.35 7.85 37.35 8.525V88.4C37.35 89.075 37.8 89.525 38.475 89.525H105.525C106.2 89.525 106.65 89.075 106.65 88.4V8.525zM84.6 77.15H59.4C57.6 77.15 56.025 75.575 56.025 73.775S57.6 70.4 59.4 70.4H84.825C86.625 70.4 88.2 71.975 88.2 73.775S86.625 77.15 84.6 77.15z" />
    <glyph glyph-name="suitcase"
      unicode="&#xEA25;"
      horiz-adv-x="144" d="M136.125 90.65H101.7C101.025 104.375 90 115.625 76.5 115.625H67.5C54 115.625 42.975 104.6 42.3 90.65H7.875C3.6 90.65 0 87.05 0 82.775V4.25C0 -0.025 3.6 -3.625 7.875 -3.625H136.125C140.4 -3.625 144 -0.025 144 4.25V82.775C144 87.05 140.4 90.65 136.125 90.65zM43.65 83.9V3.35H31.725V83.9H43.65zM50.4 83.9H93.6V3.35H50.4V83.9zM100.35 83.9H112.275V3.35H100.35V83.9zM67.5 108.875H76.5C86.175 108.875 94.275 100.775 94.95 90.65H49.05C49.725 100.775 57.825 108.875 67.5 108.875zM6.75 4.25V82.775C6.75 83.45 7.2 83.9 7.875 83.9H24.975V3.35H7.875C7.2 3.125 6.75 3.8 6.75 4.25zM137.25 4.25C137.25 3.575 136.8 3.125 136.125 3.125H119.025V83.9H136.125C136.8 83.9 137.25 83.45 137.25 82.775V4.25z" />
    <glyph glyph-name="surf-board"
      unicode="&#xEA26;"
      horiz-adv-x="144" d="M98.55 127.55C97.425 128.225 95.85 128.225 94.725 127.55C86.175 123.275 78.3 116.075 72 106.4C65.7 116.075 57.825 123.275 49.275 127.55C48.15 128.225 46.575 128.225 45.45 127.55C22.05 115.85 6.075 83.225 6.075 46.55C6.075 23.6 12.15 2 23.175 -14.2C23.85 -15.325 25.2 -16 26.55 -16H117C118.35 -16 119.7 -15.325 120.375 -14.2C131.4 2 137.475 23.6 137.475 46.55C137.925 83.225 121.95 115.85 98.55 127.55zM47.25 121.025C55.575 116.525 63.225 108.65 69.075 98.3C71.55 94.025 73.575 89.3 75.375 84.35L13.95 62.525C17.55 89.3 29.925 111.575 47.25 121.025zM12.825 46.55C12.825 49.475 13.05 52.175 13.05 54.875L77.175 77.825C79.2 70.85 80.55 63.425 81 55.775L13.5 31.7C13.275 36.65 12.825 41.6 12.825 46.55zM66.6 -9.25H28.125C21.825 0.425 17.325 12.125 14.85 24.95L81.675 48.8V46.55C81.675 27.65 77.175 9.2 69.075 -5.2C68.175 -6.55 67.275 -7.9 66.6 -9.25zM115.875 -9.25H74.475C74.7 -9.025 74.7 -8.575 74.925 -8.35C83.7 6.95 88.425 26.525 88.425 46.55C88.425 65.9 83.925 84.8 75.825 99.875C81.675 109.325 88.65 116.75 96.75 121.025C117.45 110 131.175 80.3 131.175 46.775C131.175 25.4 125.775 5.6 115.875 -9.25z" />
    <glyph glyph-name="tent-alt"
      unicode="&#xEA27;"
      horiz-adv-x="144" d="M140.4 7.4H135.225L76.275 86.375L90.9 106.175C92.025 107.75 91.8 109.775 90.225 110.9C88.875 111.8 86.625 111.575 85.5 110L72 92L58.5 110C57.375 111.575 55.35 111.8 53.775 110.675S51.975 107.525 53.1 105.95L67.725 86.375L8.775 7.4H3.6C1.8 7.4 0.225 5.825 0.225 4.025S1.8 0.65 3.6 0.65H140.4C142.2 0.65 143.775 2.225 143.775 4.025S142.425 7.4 140.4 7.4zM72 80.75L126.9 7.4H87.975L79.425 36.65C78.975 38 77.625 39.125 76.275 39.125H67.95C66.375 39.125 65.025 38.225 64.8 36.65L56.25 7.4H17.1L72 80.75zM63 7.4L70.2 32.375H73.575L81 7.4H63z" />
    <glyph glyph-name="tent"
      unicode="&#xEA28;"
      horiz-adv-x="144" d="M140.625 7.175H135.45L76.275 86.375L91.125 106.175C92.25 107.75 92.025 109.775 90.45 110.9S86.85 111.8 85.725 110.225L72 92L58.5 110.225C57.375 111.8 55.35 112.025 53.775 110.9C52.2 109.775 51.975 107.75 53.1 106.175L67.725 86.375L8.775 7.175H3.375C1.575 7.175 0 5.6 0 3.8S1.575 0.425 3.375 0.425H140.625C142.425 0.425 144 2 144 3.8S142.425 7.175 140.625 7.175zM72 80.75L126.9 7.175H88.875V22.475C88.875 31.475 81.45 38.9 72.45 38.9H71.55C62.55 38.9 55.125 31.475 55.125 22.475V7.175H17.1L72 80.75zM61.875 7.175V22.475C61.875 27.875 66.15 32.15 71.55 32.15H72.45C77.85 32.15 82.125 27.875 82.125 22.475V7.175H61.875z" />
    <glyph glyph-name="travel"
      unicode="&#xEA29;"
      horiz-adv-x="144" d="M144 26.75C144 39.125 134.325 48.575 121.95 48.575C109.8 48.575 99.9 38.675 99.9 26.75C99.9 18.425 109.8 2.225 115.425 -6.1H39.15C35.1 -6.1 31.275 -4.525 28.35 -1.6C24.75 2 23.175 7.175 24.3 12.575C25.65 19.55 32.4 24.725 39.825 24.725H63.9C69.75 24.725 75.375 26.975 79.425 31.25C85.5 37.325 87.525 46.1 84.6 54.425C81.675 63.2 73.125 69.05 63.45 69.05H28.35C33.975 77.825 44.1 94.7 44.1 103.25C44.1 115.625 34.425 125.075 22.05 125.075C9.9 124.85 0 115.175 0 103.025C0 92 17.325 66.575 19.35 63.65C19.575 63.425 19.575 63.2 19.8 63.2C19.8 63.2 20.025 63.2 20.025 62.975C20.25 62.975 20.25 62.75 20.475 62.75C20.475 62.75 20.7 62.75 20.7 62.525C20.925 62.525 20.925 62.3 21.15 62.3H63.675C70.425 62.3 76.5 58.25 78.525 52.4C80.55 46.55 79.2 40.475 74.925 36.2C72 33.275 68.175 31.7 64.125 31.7H40.05C29.25 31.7 19.8 24.275 17.775 14.15C16.2 6.725 18.45 -0.925 23.85 -6.1C28.125 -10.375 33.525 -12.625 39.375 -12.625H123.075C123.3 -12.625 123.3 -12.625 123.525 -12.4C123.525 -12.4 123.75 -12.4 123.75 -12.175C123.975 -12.175 123.975 -11.95 124.2 -11.95C124.2 -11.95 124.425 -11.95 124.425 -11.725L124.875 -11.275L125.1 -11.05C126.6750000000001 -8.8 144 15.725 144 26.75zM22.05 118.1C30.6 118.1 37.35 111.35 37.35 103.025C37.35 97.175 28.8 82.1 22.05 71.525C15.3 82.1 6.75 97.175 6.75 103.025C6.75 111.35 13.725 118.1 22.05 118.1zM121.95 42.05C130.5 42.05 137.25 35.3 137.25 26.975C137.25 21.125 128.7 6.5 121.95 -3.4C115.2 6.725 106.65 21.125 106.65 26.975C106.65 35.075 113.625 42.05 121.95 42.05zM128.25 28.55C128.25 31.925 125.55 34.85 121.95 34.85S115.65 31.925 115.65 28.55C115.65 25.175 118.35 22.25 121.95 22.25S128.25 25.175 128.25 28.55zM28.35 104.825C28.35 108.2 25.65 111.125 22.05 111.125C18.45 111.125 15.75 108.2 15.75 104.825S18.45 98.525 22.05 98.525C25.425 98.525 28.35 101.225 28.35 104.825z" />
    <glyph glyph-name="pyramids"
      unicode="&#xEA2A;"
      horiz-adv-x="144" d="M138.825 8.975H5.175C3.375 8.975 1.575 9.875 0.675 11.45C-0.225 13.025 -0.225 15.05 0.675 16.625L38.025 79.85C38.925 81.425 40.5 82.325 42.3 82.325C44.1 82.325 45.675 81.425 46.575 79.85L59.4 58.475L84.375 100.775C85.275 102.35 86.85 103.25 88.65 103.25C90.45 103.25 92.025 102.35 92.925 100.775L143.55 16.625C144.45 15.05 144.45 13.025 143.55 11.45C142.425 9.875 140.85 8.975 138.825 8.975zM8.1 15.725H136.125L88.425 94.7L63.45 52.4C62.55 50.825 60.975 49.925 59.175 49.925C57.375 49.925 55.8 50.825 54.9 52.4L42.075 73.775L8.1 15.725z" />
    <glyph glyph-name="flight-search"
      unicode="&#xEA2B;"
      horiz-adv-x="144" d="M72.675 90.65L50.4 96.5V105.95C50.4 107.75 48.825 109.325 47.025 109.325S43.65 107.75 43.65 105.95V96.5L21.375 90.875C19.575 90.425 18.45 88.625 18.9 86.825C19.35 85.25 20.7 84.35 22.275 84.35H23.175L43.875 89.525V74.225L32.4 71.525C30.6 71.075 29.475 69.275 29.925 67.475C30.375 65.9 31.725 64.775 33.3 64.775H33.975L47.475 67.7L60.975 64.775H61.65C63.225 64.775 64.575 65.9 65.025 67.475C65.475 69.275 64.35 71.075 62.55 71.525L50.85 74.225V89.525L71.55 84.125H72.45C74.025 84.125 75.375 85.25 75.825 86.6C75.6 88.4 74.475 90.2 72.675 90.65zM141.3 8.075L106.875 42.725C103.5 46.1 97.875 46.1 94.5 42.725L92.25 40.475L82.575 50.15C98.55 68.6 97.875 96.5 80.325 114.05C71.55 123.05 59.625 128 47.025 128S22.725 123.05 13.725 114.275C4.95 105.275 0 93.575 0 80.975S4.95 56.675 13.725 47.675C22.95 38.45 34.875 33.95 47.025 33.95C58.05 33.95 68.85 37.775 77.85 45.425L87.525 35.75L85.275 33.5C81.9 30.125 81.9 24.5 85.275 21.125L119.925 -13.525C121.725 -15.1 123.75 -16 126 -16S130.5 -15.1 132.075 -13.525L141.075 -4.525C144.675 -0.925 144.675 4.7 141.3 8.075zM18.675 52.4C11.025 60.05 6.75 70.175 6.75 80.975S11.025 101.9 18.45 109.55S36.225 121.25 47.025 121.25S67.95 116.975 75.6 109.55C91.35 93.8 91.35 68.375 75.6 52.625C59.85 36.65 34.2 36.65 18.675 52.4zM136.575 0.425L127.575 -8.575C126.9 -9.25 125.55 -9.25 124.875 -8.575L90 26.075C89.325 26.75 89.325 28.1 90 28.775L99 37.775C99.45 38.225 99.9 38.45 100.35 38.45C100.8 38.45 101.475 38.225 101.7 37.775L136.35 3.125C137.25 2.45 137.25 1.325 136.575 0.425z" />
    <glyph glyph-name="beachball"
      unicode="&#xEA2C;"
      horiz-adv-x="144" d="M72 128C32.4 128 0 95.6 0 56S32.175 -16 72 -16C111.6 -16 144 16.175 144 56C144 95.6 111.6 128 72 128zM6.75 56C6.75 88.4 30.825 115.625 61.875 120.35C50.175 102.575 43.65 80.075 43.65 56C43.65 31.925 50.175 9.2 61.875 -8.35C30.825 -3.625 6.75 23.6 6.75 56zM70.65 -9.25C57.825 7.625 50.4 31.25 50.4 56S57.825 104.15 70.65 121.25H73.35C86.175 104.375 93.6 80.75 93.6 56S86.175 7.85 73.35 -9.25H70.65zM82.125 -8.35C93.825 9.425 100.35 31.925 100.35 56C100.35 80.075 93.825 102.8 82.125 120.35C113.175 115.625 137.25 88.4 137.25 56C137.25 23.6 113.175 -3.625 82.125 -8.35z" />
    <glyph glyph-name="3d"
      unicode="&#xEA2D;"
      horiz-adv-x="144" d="M134.775 18.65V18.875C134.775 19.1 135 19.55 135 19.775V92.225C135 93.35 134.325 94.7 133.2 95.15L73.575 127.55C73.35 127.55 73.35 127.55 73.125 127.775C72.9 127.775 72.9 128 72.675 128H70.875C70.65 128 70.65 128 70.425 127.775C70.2 127.775 70.2 127.775 69.975 127.55L10.8 95.15C9.675 94.7 9 93.35 9 92.225V19.775C9 19.55 9 19.1 9.225 18.875V18.65C9.225 18.425 9.45 18.2 9.45 17.975L9.675 17.75C9.675 17.525 9.9 17.525 10.125 17.3L10.35 17.075C10.575 17.075 10.575 16.85 10.8 16.85L70.425 -15.55C70.875 -15.775 71.55 -16 72 -16S73.125 -15.775 73.575 -15.55L133.2 16.85C133.425 16.85 133.425 17.075 133.65 17.075L133.875 17.3L134.325 17.75L134.55 17.975C134.55 18.2 134.775 18.425 134.775 18.65zM128.25 25.4L75.375 54.2V119L128.25 90.2V25.4zM15.75 90.2L68.625 119V54.2L15.75 25.4V90.2zM72 -8.8L19.575 19.775L72 48.35L124.425 19.775L72 -8.8z" />
    <glyph glyph-name="Mobile"
      unicode="&#xEA2E;"
      horiz-adv-x="144" d="M105.75 128H38.25C31.725 128 26.55 122.825 26.55 116.3V-4.3C26.55 -10.825 31.725 -16 38.25 -16H105.75C112.275 -16 117.45 -10.825 117.45 -4.3V116.3C117.675 122.825 112.275 128 105.75 128zM110.925 -4.3C110.925 -7 108.675 -9.25 105.975 -9.25H38.25C35.55 -9.25 33.3 -7 33.3 -4.3V116.3C33.075 119 35.325 121.25 38.25 121.25H105.75C108.45 121.25 110.7 119 110.7 116.3V-4.3zM72 20C66.15 20 61.2 15.05 61.2 9.2S66.15 -1.6 72 -1.6C77.85 -1.6 82.8 3.35 82.8 9.2S77.85 20 72 20zM72 5.15C69.75 5.15 67.95 6.95 67.95 9.2S69.75 13.25 72 13.25S76.05 11.45 76.05 9.2S74.25 5.15 72 5.15zM79.425 109.1H64.575C62.775 109.1 61.2 107.525 61.2 105.725S62.775 102.35 64.575 102.35H79.425C81.225 102.35 82.8 103.925 82.8 105.725S81.225 109.1 79.425 109.1z" />
    <glyph glyph-name="alarm-2"
      unicode="&#xEA2F;"
      horiz-adv-x="144" d="M137.475 17.075L128.025 38.9C126.9 41.6 126.225 44.525 126.225 47.45V66.575C126.225 80.3 120.375 92.9 109.8 102.575C100.35 111.125 88.2 115.85 75.375 116.75V124.625C75.375 126.425 73.8 128 72 128S68.625 126.425 68.625 124.625V116.75C67.5 116.75 66.375 116.525 65.25 116.525C38.25 113.375 17.55 91.55 17.55 65.9V47.675C17.55 44.75 16.875 41.825 15.75 39.125L6.3 17.3C4.275 12.125 4.725 6.5 7.65 2C10.575 -2.5 15.75 -5.2 21.15 -5.2H66.375V-10.15C66.375 -13.3 68.85 -15.775 72 -15.775S77.625 -13.3 77.625 -10.15V-4.975H122.85C128.25 -4.975 133.425 -2.275 136.35 2.225C139.275 6.5 139.725 12.125 137.475 17.075zM130.725 5.6C128.925 2.9 126 1.325 122.85 1.325H21.15C18 1.325 15.075 2.9 13.275 5.6C11.475 8.3 11.25 11.45 12.6 14.375L22.05 36.2C23.625 39.8 24.3 43.625 24.3 47.45V65.675C24.3 87.95 42.3 106.85 65.925 109.55C67.95 110 69.975 110 72 110C84.375 110 96.3 105.5 105.3 97.625C114.525 89.3 119.475 78.5 119.475 66.8V47.675C119.475 43.85 120.15 40.025 121.725 36.425L131.175 14.6C132.525 11.45 132.3 8.3 130.725 5.6z" />
    <glyph glyph-name="alarm-3"
      unicode="&#xEA30;"
      horiz-adv-x="144" d="M133.2 1.1L128.25 8.75C127.125 10.55 126.45 12.35 126.45 14.375V65.9C126.45 79.85 120.6 92.675 109.8 102.35C100.35 110.9 87.975 115.85 75.15 116.525V124.625C75.15 126.425 73.575 128 71.775 128S68.4 126.425 68.4 124.625V116.525C67.275 116.525 66.15 116.3 65.025 116.3C37.8 113.15 17.1 91.1 17.1 65V14.6C16.875 12.35 16.425 10.55 15.525 9.2L10.8 1.1C9.675 -0.7 9.675 -2.95 10.8 -4.525S13.5 -7.225 15.75 -7.225H66.375V-10.375C66.375 -13.525 68.85 -16 72 -16S77.625 -13.525 77.625 -10.375V-7.225H128.7C130.725 -7.225 132.525 -6.325 133.425 -4.525C134.325 -2.725 134.325 -0.7 133.2 1.1zM65.925 109.55C80.55 111.125 94.95 106.625 105.525 97.4C114.975 89.075 119.925 77.825 119.925 65.9V25.4H23.85V65C23.85 87.725 41.85 106.85 65.925 109.55zM17.775 -0.475L21.375 5.825C22.725 8.075 23.4 10.55 23.85 13.925V18.425H119.925V14.375C119.925 11 120.825 8.075 122.625 5.15L126.225 -0.475H17.775z" />
    <glyph glyph-name="alarm-4"
      unicode="&#xEA31;"
      horiz-adv-x="144" d="M107.325 26.975C106.65 27.875 106.425 28.775 106.425 29.675V60.725C106.425 69.5 102.6 77.825 95.85 83.9C90.225 89.075 83.025 92 75.15 92.675V99.65C75.15 101.45 73.575 103.025 71.775 103.025S68.4 101.45 68.4 99.65V92.675H67.5C50.175 90.65 37.125 76.7 37.125 60.275V29.675C36.9 28.1 36.675 27.425 36.45 26.975L33.75 22.25C32.85 20.675 32.85 18.875 33.75 17.525C34.65 16.175 36 15.275 37.8 15.275H68.625V12.35C68.625 10.55 70.2 8.975 72 8.975S75.375 10.55 75.375 12.35V15.275H106.425C108.225 15.275 109.575 16.175 110.475 17.525C111.375 19.1 111.375 20.9 110.475 22.25L107.325 26.975zM41.4 22.025L42.525 23.825C43.425 25.4 43.875 26.975 44.1 29.225V60.275C44.1 73.325 54.45 84.575 68.4 85.925C76.95 86.825 85.275 84.35 91.35 78.95C96.75 74.225 99.675 67.7 99.675 60.725V29.675C99.675 27.425 100.35 25.4 101.475 23.375L102.375 22.025H41.4zM13.95 70.85C12.6 72.2 10.575 72.2 9.225 70.85C3.375 65.225 0.225 57.575 0.225 49.7C0.225 41.6 3.375 34.175 9.225 28.55C9.9 27.875 10.8 27.65 11.475 27.65C12.375 27.65 13.275 28.1 13.95 28.775C15.3 30.125 15.3 32.15 13.95 33.5C9.45 38 6.975 43.625 6.975 49.925C6.975 56 9.45 61.85 13.95 66.35C15.075 67.475 15.075 69.5 13.95 70.85zM24.525 60.5C23.175 61.85 21.15 61.85 19.8 60.5C16.875 57.575 15.075 53.75 15.075 49.7C15.075 45.65 16.65 41.825 19.8 38.9C20.475 38.225 21.375 38 22.05 38C22.95 38 23.85 38.45 24.525 39.125C25.875 40.475 25.875 42.5 24.525 43.85C22.95 45.425 21.825 47.675 21.825 49.925C21.825 52.175 22.725 54.425 24.525 56C25.875 57.125 25.875 59.15 24.525 60.5zM135 71.075C133.65 72.425 131.625 72.425 130.275 71.075C128.925 69.725 128.925 67.7 130.275 66.35C134.775 61.85 137.25 56.225 137.25 49.925C137.25 43.85 134.775 38 130.275 33.5C128.925 32.15 128.925 30.125 130.275 28.775C130.95 28.1 131.85 27.65 132.75 27.65C133.65 27.65 134.55 27.875 135 28.55C140.85 34.175 144 41.825 144 49.7C144 57.8 140.85 65.225 135 71.075zM119.475 60.5C118.125 59.15 118.125 57.125 119.475 55.775C121.05 54.2 122.175 51.95 122.175 49.7C122.175 47.45 121.275 45.2 119.475 43.625C118.125 42.275 118.125 40.25 119.475 38.9C120.15 38.225 121.05 37.775 121.95 37.775C122.85 37.775 123.75 38 124.2 38.675C127.125 41.6 128.925 45.425 128.925 49.475C128.925 53.525 127.35 57.35 124.2 60.275C122.85 62.075 120.825 61.85 119.475 60.5z" />
    <glyph glyph-name="alarm-clock-alt"
      unicode="&#xEA32;"
      horiz-adv-x="144" d="M110.7 121.925L122.4 112.7C123.075 112.25 123.75 112.025 124.425 112.025C125.325 112.025 126.45 112.475 127.125 113.375C128.25 114.95 128.025 116.975 126.45 118.1L114.75 127.325C113.175 128.45 111.15 128.225 110.025 126.65C108.9 125.3 109.125 123.05 110.7 121.925zM19.575 112.025C20.25 112.025 20.925 112.25 21.6 112.925L33.3 122.15C34.875 123.275 35.1 125.525 33.975 126.875C32.85 128.45 30.6 128.675 29.25 127.55L17.325 118.1C15.975 116.975 15.75 114.95 16.875 113.375C17.55 112.475 18.45 112.025 19.575 112.025zM108.675 8.075C123.075 19.1 132.525 36.425 132.525 56C132.525 89.3 105.525 116.3 72.225 116.3S11.7 89.3 11.7 56C11.7 36.425 20.925 19.1 35.55 8.075L18.675 -10.375C17.325 -11.725 17.55 -13.975 18.9 -15.1C19.35 -15.775 20.25 -16 20.925 -16C21.825 -16 22.725 -15.55 23.4 -14.875L40.95 4.25C49.95 -1.15 60.525 -4.3 72 -4.3S93.825 -1.15 103.05 4.25L120.6 -14.875C121.275 -15.55 122.175 -16 123.075 -16C123.975 -16 124.65 -15.775 125.325 -15.1C126.675 -13.75 126.9 -11.725 125.55 -10.375L108.675 8.075zM18.45 56C18.45 85.7 42.525 109.55 72 109.55S125.55 85.7 125.55 56C125.55 26.525 101.475 2.45 72 2.45S18.45 26.525 18.45 56zM101.475 59.375H75.375V84.575C75.375 86.375 73.8 87.95 72 87.95S68.625 86.375 68.625 84.575V56C68.625 54.2 70.2 52.625 72 52.625H101.475C103.275 52.625 104.85 54.2 104.85 56S103.275 59.375 101.475 59.375z" />
    <glyph glyph-name="add-files"
      unicode="&#xEA33;"
      horiz-adv-x="144" d="M53.325 71.3H68.625V56C68.625 54.2 70.2 52.625 72 52.625S75.375 54.2 75.375 56V71.3H90.675C92.475 71.3 94.05 72.875 94.05 74.675S92.475 78.05 90.675 78.05H75.375V93.35C75.375 95.15 73.8 96.725 72 96.725S68.625 95.15 68.625 93.35V78.05H53.325C51.525 78.05 49.95 76.475 49.95 74.675S51.525 71.3 53.325 71.3zM119.475 128H24.525C21.375 128 18.675 125.525 18.675 122.15V36.425C18.675 33.5 20.025 30.575 22.05 28.55L66.375 -13.075C68.4 -15.1 71.1 -16.225 74.025 -16.225H119.475C122.625 -16.225 125.325 -13.75 125.325 -10.375V122.15C125.325 125.525 122.625 128 119.475 128zM33.075 27.65H64.35C66.825 27.65 68.625 25.85 68.625 23.375V-5.875L33.075 27.65zM118.575 -9.25H75.375V23.6C75.375 29.675 70.425 34.625 64.35 34.625H26.1C25.65 35.3 25.425 35.975 25.425 36.875V121.25H118.575V-9.25z" />
    <glyph glyph-name="ai"
      unicode="&#xEA34;"
      horiz-adv-x="144" d="M121.5 104.15L87.75 127.325C87.075 127.775 86.4 128 85.725 128H24.3C22.5 128 20.925 126.425 20.925 124.625V-12.625C20.925 -14.425 22.5 -16 24.3 -16H119.7C121.5 -16 123.075 -14.425 123.075 -12.625V101.45C123.075 102.575 122.4 103.7 121.5 104.15zM116.325 -9.25H27.675V121.25H84.6L116.1 99.65V-9.25zM63.225 63.425C62.55 64.55 61.425 65.225 60.3 65.225S58.05 64.55 57.375 63.425L38.7 30.8C37.8 29.225 38.25 27.2 40.05 26.3C41.625 25.4 43.65 25.85 44.55 27.65L48.825 35.3H71.55L75.825 27.65C76.5 26.525 77.625 25.85 78.75 25.85C79.425 25.85 79.875 26.075 80.325 26.3C81.9 27.2 82.575 29.225 81.675 30.8L63.225 63.425zM52.875 41.825L60.3 54.875L67.725 41.825H52.875zM96.525 53.525C94.725 53.525 93.15 51.95 93.15 50.15V29.225C93.15 27.425 94.725 25.85 96.525 25.85S99.9 27.425 99.9 29.225V50.15C99.9 51.95 98.325 53.525 96.525 53.525zM96.525 58.25C98.55 58.25 100.125 59.825 100.125 61.85S98.55 65.45 96.525 65.45S92.925 63.875 92.925 61.85S94.5 58.25 96.525 58.25z" />
    <glyph glyph-name="alarm-clock"
      unicode="&#xEA35;"
      horiz-adv-x="144" d="M125.325 78.275C129.15 82.325 131.4 87.725 131.4 93.35C131.4 105.5 121.5 115.4 109.35 115.4C101.925 115.4 95.175 111.8 91.125 105.725C86.175 107.3 80.775 108.425 75.375 108.65V121.25H84.375C86.4 121.25 87.75 122.6 87.75 124.625S86.4 128 84.375 128H59.625C57.6 128 56.25 126.425 56.25 124.625S57.6 121.25 59.625 121.25H68.625V108.65C63.225 108.425 57.825 107.3 52.875 105.725C48.825 111.8 42.075 115.4 34.65 115.4C22.5 115.4 12.6 105.5 12.6 93.35C12.6 87.725 14.85 82.325 18.675 78.275C13.05 68.825 9.9 58.025 9.9 46.325C9.675 12.125 37.575 -16 72 -16S134.325 11.9 134.325 46.325C134.325 58.025 130.95 69.05 125.325 78.275zM109.35 108.65C117.9 108.65 124.65 101.675 124.65 93.35C124.65 89.975 123.525 86.6 121.5 84.125C115.2 92.225 107.1 98.975 97.65 103.25C100.575 106.625 104.625 108.65 109.35 108.65zM19.35 93.35C19.35 101.9 26.325 108.65 34.65 108.65C39.375 108.65 43.65 106.625 46.35 103.025C36.9 98.75 28.575 92.225 22.5 83.9C20.475 86.6 19.35 89.975 19.35 93.35zM72 -9.25C41.4 -9.25 16.425 15.725 16.425 46.325S41.4 101.9 72 101.9S127.575 76.925 127.575 46.325S102.6 -9.25 72 -9.25zM96.975 47H75.375V74.675C75.375 76.475 73.8 78.05 72 78.05S68.625 76.475 68.625 74.675V47H65.7C63.9 47 62.325 45.425 62.325 43.625S63.9 40.25 65.7 40.25H68.625V37.325C68.625 35.525 70.2 33.95 72 33.95S75.375 35.525 75.375 37.325V40.25H96.975C98.775 40.25 100.35 41.825 100.35 43.625S98.775 47 96.975 47z" />
    <glyph glyph-name="archive"
      unicode="&#xEA36;"
      horiz-adv-x="144" d="M134.325 121.7H9.675C4.275 121.7 0 117.425 0 112.25V93.575C0 88.175 4.275 83.9 9.675 83.9H12.6V-0.25C12.6 -5.65 16.875 -9.925 22.275 -9.925H122.175C127.575 -9.925 131.85 -5.65 131.85 -0.25V83.9H134.775C140.175 83.9 144.45 88.175 144.45 93.575V112.25C144 117.425 139.725 121.7 134.325 121.7zM124.875 -0.25C124.875 -1.825 123.525 -3.175 121.95 -3.175H22.05C20.475 -3.175 19.125 -1.825 19.125 -0.25V83.9H124.65V-0.25zM137.25 93.35C137.25 91.775 135.9 90.425 134.325 90.425H9.675C8.1 90.425 6.75 91.775 6.75 93.35V112.25C6.75 113.825 8.1 115.175 9.675 115.175H134.55C135.9 114.95 137.25 113.825 137.25 112.25V93.35zM49.275 27.65H94.725C97.875 27.65 100.35 30.125 100.35 33.275V53.75C100.35 56.9 97.875 59.375 94.725 59.375H49.275C46.125 59.375 43.65 56.9 43.65 53.75V33.275C43.65 30.125 46.125 27.65 49.275 27.65zM50.4 52.625H93.6V34.4H50.4V52.625z" />
    <glyph glyph-name="backspace"
      unicode="&#xEA37;"
      horiz-adv-x="144" d="M140.625 98.525H45C44.1 98.525 43.2 98.3 42.75 97.625L1.125 58.475C0.45 57.8 0 56.9 0 56S0.45 54.2 1.125 53.525L42.75 14.375C43.425 13.7 44.1 13.475 45 13.475H140.625C142.425 13.475 144 15.05 144 16.85V95.15C144 96.95 142.425 98.525 140.625 98.525zM137.25 20.225H46.35L8.325 56L46.35 91.775H137.25V20.225zM65.475 37.775C66.15 37.1 67.05 36.875 67.95 36.875S69.75 37.1 70.425 37.775L83.925 51.275L97.425 37.775C98.1 37.1 99 36.875 99.9 36.875S101.7 37.1 102.375 37.775C103.725 39.125 103.725 41.15 102.375 42.5L88.875 56L102.375 69.5C103.725 70.85 103.725 72.875 102.375 74.225C101.025 75.575 99 75.575 97.65 74.225L84.15 60.725L70.65 74.225C69.3 75.575 67.275 75.575 65.925 74.225C64.575 72.875 64.575 70.85 65.925 69.5L79.425 56L65.925 42.5C64.125 41.15 64.125 39.125 65.475 37.775z" />
    <glyph glyph-name="ban"
      unicode="&#xEA38;"
      horiz-adv-x="144" d="M72 128C32.4 128 0 95.6 0 56S32.4 -16 72 -16S144 16.4 144 56S111.6 128 72 128zM6.75 56C6.75 92 36 121.25 72 121.25C88.875 121.25 104.175 114.95 115.65 104.375L23.625 12.35C13.05 23.825 6.75 39.125 6.75 56zM72 -9.25C55.35 -9.25 40.05 -2.95 28.35 7.4L120.375 99.425C130.95 87.95 137.25 72.65 137.25 56C137.25 20 108 -9.25 72 -9.25z" />
    <glyph glyph-name="battery"
      unicode="&#xEA39;"
      horiz-adv-x="144" d="M138.375 96.725H131.625V110C131.625 113.15 129.15 115.625 126 115.625H99.225C96.075 115.625 93.6 113.15 93.6 110V96.95H50.4V110C50.4 113.15 47.925 115.625 44.775 115.625H18C15.075 115.625 12.375 112.925 12.375 110V96.95H5.625C2.475 96.725 0 94.25 0 91.1V2C0 -1.15 2.475 -3.625 5.625 -3.625H138.375C141.525 -3.625 144 -1.15 144 2V91.1C144 94.25 141.525 96.725 138.375 96.725zM100.35 108.875H124.875V96.95H100.35V108.875zM19.125 108.875H43.65V96.95H19.125V108.875zM137.25 3.125H6.75V89.975H137.25V3.125zM86.4 40.025L65.25 56L86.625 71.975C88.2 73.1 88.425 75.125 87.3 76.7C86.175 78.275 84.15 78.5 82.575 77.375L57.6 58.7C56.7 58.025 56.25 57.125 56.25 56S56.7 53.975 57.6 53.3L78.975 37.325L57.6 21.35C56.025 20.225 55.8 18.2 56.925 16.625C57.6 15.725 58.5 15.275 59.625 15.275C60.3 15.275 60.975 15.5 61.65 15.95L86.625 34.625C87.525 35.3 87.975 36.2 87.975 37.325S87.3 39.35 86.4 40.025z" />
    <glyph glyph-name="block-user"
      unicode="&#xEA3A;"
      horiz-adv-x="144" d="M63.45 67.925C80.55 67.925 94.5 81.425 94.5 97.85C94.5 114.5 80.55 128 63.45 128C46.35 128 32.4 114.5 32.4 98.075C32.625 81.425 46.35 67.925 63.45 67.925zM63.45 121.25C76.95 121.25 87.75 110.675 87.75 97.85S76.95 74.675 63.45 74.675S39.15 85.025 39.15 97.85S50.175 121.25 63.45 121.25zM135.45 14.15C135.45 30.8 121.95 44.3 105.3 44.3C102.375 44.3 99.45 43.85 96.75 42.95C87.3 50.15 75.6 54.2 63.45 54.2C33.075 54.2 8.325 29.45 8.325 -0.925V-8.125C8.325 -12.625 11.925 -16.225 16.425 -16.225H110.475C112.275 -16.225 114.075 -15.55 115.425 -14.425C127.125 -9.925 135.45 1.1 135.45 14.15zM120.6 31.925L86.625 0.425C83.925 4.25 82.125 8.975 82.125 14.15C82.125 26.975 92.7 37.55 105.525 37.55C111.15 37.55 116.55 35.3 120.6 31.925zM16.425 -9.25C15.75 -9.25 15.075 -8.575 15.075 -7.9V-0.7C15.075 25.85 36.675 47.675 63.45 47.675C72.9 47.675 81.675 44.975 89.55 40.025C81 34.625 75.15 25.175 75.15 14.375C75.15 4.925 79.425 -3.4 86.4 -9.025H16.425zM105.3 -9.25C99.9 -9.25 95.175 -7.45 91.125 -4.525L124.875 26.75C127.35 23.15 128.7 18.65 128.7 14.15C128.7 1.325 118.35 -9.25 105.3 -9.25z" />
    <glyph glyph-name="bluetooth"
      unicode="&#xEA3B;"
      horiz-adv-x="144" d="M115.875 26.075L70.875 56L115.875 85.925C117.9 87.5 119.25 89.75 119.25 92.45C119.25 94.925 117.9 97.4 115.875 98.75L73.8 126.65C71.55 128.225 68.625 128.225 66.375 127.1C63.9 125.75 62.325 123.275 62.325 120.35V61.85L29.925 83.675C28.35 84.8 26.325 84.35 25.2 82.775S24.525 79.175 26.1 78.05L59.175 56L26.55 34.175C24.975 33.05 24.525 31.025 25.65 29.45C26.325 28.55 27.45 27.875 28.35 27.875C29.025 27.875 29.7 28.1 30.15 28.55L62.325 49.925V-8.575C62.325 -11.5 63.9 -13.975 66.375 -15.325C67.5 -16 68.625 -16.225 69.75 -16.225C71.1 -16.225 72.45 -15.775 73.8 -14.875L115.875 13.25C117.9 14.6 119.25 17.075 119.25 19.55C119.25 22.25 117.9 24.5 115.875 26.075zM69.075 120.35C69.075 120.8 69.3 121.025 69.525 121.025L69.75 121.25H69.975L112.05 93.125C112.275 92.9 112.5 92.675 112.5 92.45C112.5 92.225 112.5 92 112.05 91.775L69.075 62.975V120.35zM112.05 18.875L70.2 -9.25S69.975 -9.475 69.525 -9.25C69.3 -9.25 69.075 -9.025 69.075 -8.575V49.025L112.05 20.45C112.275 20.225 112.5 20 112.5 19.775C112.5 19.325 112.5 19.1 112.05 18.875z" />
    <glyph glyph-name="bookmark-alt"
      unicode="&#xEA3C;"
      horiz-adv-x="144" d="M134.325 78.05H63V102.8C63 106.4 60.075 109.325 56.475 109.325H25.2C21.6 109.325 18.675 106.4 18.675 102.8V78.05H9.45C4.275 78.05 0 73.775 0 68.6V12.35C0 7.175 4.275 2.9 9.45 2.9H134.325C139.725 2.9 144 7.175 144 12.575V68.825C144 73.775 139.725 78.05 134.325 78.05zM25.425 102.575H56.25V56.9L45.9 65.225L45.675 65.45C42.75 67.25 38.925 67.25 36.225 65.225L25.65 56.675V102.575zM137.25 12.35C137.25 10.775 135.9 9.425 134.325 9.425H9.45C7.875 9.425 6.75 10.775 6.75 12.125V68.375C6.75 69.95 8.1 71.075 9.45 71.075H18.675V56C18.675 53.525 20.025 51.275 22.275 50.15C23.175 49.7 24.075 49.475 25.2 49.475C26.55 49.475 28.125 49.925 29.25 50.825L40.275 59.6C40.725 59.825 41.175 59.825 41.625 59.6L52.425 51.05C54.45 49.475 56.925 49.25 59.175 50.375S62.775 53.75 62.775 56.225V71.075H134.325C135.9 71.075 137.25 69.725 137.25 68.15V12.35z" />
    <glyph glyph-name="bookmark"
      unicode="&#xEA3D;"
      horiz-adv-x="144" d="M34.65 -16C33.3 -16 31.95 -15.775 30.6 -15.1C27 -13.525 24.975 -10.15 24.975 -6.325V118.325C24.975 123.725 29.25 128 34.65 128H109.575C114.975 128 119.25 123.725 119.25 118.325V-6.1C119.25 -9.925 117 -13.3 113.625 -14.875C110.025 -16.45 106.2 -15.775 103.275 -13.3L76.275 10.325C73.8 12.125 70.65 12.125 68.175 10.325L41.175 -13.525C39.15 -15.1 36.9 -16 34.65 -16zM34.65 121.25C33.075 121.25 31.725 119.9 31.725 118.325V-6.325C31.725 -8.125 33.075 -8.8 33.525 -9.025C33.975 -9.25 35.325 -9.7 36.675 -8.575L63.675 15.5C68.625 19.325 75.375 19.325 80.325 15.725L80.775 15.275L107.325 -8.125C108.675 -9.25 110.025 -8.8 110.475 -8.575C110.925 -8.35 112.275 -7.675 112.275 -5.875V118.325C112.275 119.9 110.925 121.25 109.35 121.25H34.65z" />
    <glyph glyph-name="brightness"
      unicode="&#xEA3E;"
      horiz-adv-x="144" d="M112.5 56C112.5 67.925 107.325 78.5 99.225 85.925C99 86.15 98.775 86.6 98.325 86.6C91.35 92.9 82.125 96.5 72 96.5C49.725 96.5 31.5 78.275 31.5 56S49.725 15.5 72 15.5S112.5 33.725 112.5 56zM68.625 29.9V22.25C51.525 24.05 38.25 38.45 38.25 56S51.525 87.95 68.625 89.75V29.9zM75.375 89.75C81.225 89.075 86.625 87.05 91.125 83.9L75.375 72.65V89.75zM75.375 64.325L96.3 79.4C98.1 77.375 99.9 75.125 101.25 72.875L75.375 54.65V64.325zM75.375 22.25V28.1L105.075 48.8C102.15 34.85 90 23.825 75.375 22.25zM75.375 36.425V46.325L104.175 66.575C105.075 63.875 105.525 60.95 105.75 57.8L75.375 36.425zM72 107.3C73.8 107.3 75.375 108.875 75.375 110.675V124.625C75.375 126.425 73.8 128 72 128S68.625 126.425 68.625 124.625V110.675C68.625 108.65 70.2 107.3 72 107.3zM72 4.7C70.2 4.7 68.625 3.125 68.625 1.325V-12.625C68.625 -14.425 70.2 -16 72 -16S75.375 -14.425 75.375 -12.625V1.325C75.375 3.35 73.8 4.7 72 4.7zM140.625 59.375H126.675C124.875 59.375 123.3 57.8 123.3 56S124.875 52.625 126.675 52.625H140.625C142.425 52.625 144 54.2 144 56S142.425 59.375 140.625 59.375zM17.325 59.375H3.375C1.575 59.375 0 57.8 0 56S1.575 52.625 3.375 52.625H17.325C19.125 52.625 20.7 54.2 20.7 56S19.35 59.375 17.325 59.375zM112.95 19.775C111.6 21.125 109.575 21.125 108.225 19.775S106.875 16.4 108.225 15.05L118.125 5.15C118.8 4.475 119.7 4.25 120.6 4.25S122.4 4.475 123.075 5.15C124.425 6.5 124.425 8.525 123.075 9.875L112.95 19.775zM31.05 92.225C31.725 91.55 32.625 91.325 33.525 91.325S35.325 91.55 36 92.225C37.35 93.575 37.35 95.6 36 96.95L26.1 106.85C24.75 108.2 22.725 108.2 21.375 106.85C20.025 105.5 20.025 103.475 21.375 102.125L31.05 92.225zM110.7 91.325C111.6 91.325 112.5 91.55 113.175 92.225L123.075 102.125C124.425 103.475 124.425 105.5 123.075 106.85C121.725 108.2 119.7 108.2 118.35 106.85L108.45 96.95C107.1 95.6 107.1 93.575 108.45 92.225C108.9 91.55 109.8 91.325 110.7 91.325zM31.05 19.775L21.15 9.875C19.8 8.525 19.8 6.5 21.15 5.15C21.825 4.475 22.725 4.25 23.625 4.25S25.425 4.475 26.1 5.15L36 15.05C37.35 16.4 37.35 18.425 36 19.775S32.4 21.125 31.05 19.775z" />
    <glyph glyph-name="bulb-alt"
      unicode="&#xEA3F;"
      horiz-adv-x="144" d="M125.325 72.65C125.325 103.25 101.475 128 72 128S18.675 103.25 18.675 72.65C18.675 50.825 30.825 31.025 49.95 22.025V-0.25C49.95 -9.025 56.25 -16 64.125 -16H80.1C87.75 -16 94.275 -8.8 94.275 -0.25V22.025C112.95 31.025 125.325 50.825 125.325 72.65zM80.1 -9.25H64.125C60.075 -9.25 56.7 -4.975 56.7 -0.25V21.35H87.3V-0.25C87.3 -4.975 83.925 -9.25 80.1 -9.25zM91.35 28.1H52.65C36 35.975 25.425 53.3 25.425 72.425C25.425 99.425 46.35 121.25 72 121.25S118.575 99.425 118.575 72.65C118.575 53.3 107.775 35.975 91.35 28.1zM80.55 89.525C79.2 90.875 77.175 90.875 75.825 89.525L63.45 77.15C62.1 75.8 62.1 73.775 63.45 72.425L73.575 62.3L63.45 52.175C62.1 50.825 62.1 48.8 63.45 47.45C64.125 46.775 65.025 46.55 65.925 46.55S67.725 46.775 68.4 47.45L80.775 59.825C82.125 61.175 82.125 63.2 80.775 64.55L70.65 74.675L80.775 84.8C81.9 86.15 81.9 88.175 80.55 89.525z" />
    <glyph glyph-name="bulb"
      unicode="&#xEA40;"
      horiz-adv-x="144" d="M107.325 113.375C96.975 123.5 83.25 128.675 68.85 128C42.3 126.2 21.15 103.25 20.925 75.35C20.7 56.9 29.025 40.25 43.425 30.125V2.675C43.425 -7.675 51.525 -16 61.425 -16H81.9C91.8 -16 99.9 -7.675 99.9 2.675V30.125C114.3 40.025 122.85 56.45 122.85 74.675C123.3 89.3 117.675 103.025 107.325 113.375zM82.125 -9.25H61.65C55.35 -9.25 50.4 -3.85 50.4 2.675V27.65H93.6V2.675C93.375 -3.85 88.425 -9.25 82.125 -9.25zM94.95 34.85L94.275 34.4H75.15V56.675L90.225 67.925C91.8 69.05 92.025 71.075 90.9 72.65C89.775 74.225 87.75 74.45 86.175 73.325L74.925 65V80.75C74.925 82.55 73.35 84.125 71.55 84.125S68.175 82.55 68.175 80.75V64.325L55.125 73.325C53.55 74.45 51.525 74 50.4 72.425S49.725 68.825 51.3 67.7L68.175 56.225V34.4H49.5L48.825 34.85C35.325 43.4 27.45 58.475 27.675 75.35C27.9 99.65 46.125 119.675 69.3 121.25H71.775C83.25 121.25 94.275 116.75 102.6 108.65C111.6 99.65 116.325 87.5 116.325 74.9C116.325 58.25 108.45 43.4 94.95 34.85z" />
    <glyph glyph-name="calendar"
      unicode="&#xEA41;"
      horiz-adv-x="144" d="M136.35 94.7H75.375V102.8C80.775 104.375 84.825 109.325 84.825 115.175C84.825 122.15 78.975 128 72 128S59.175 122.375 59.175 115.175C59.175 109.325 63.225 104.375 68.625 102.8V94.7H7.65C4.05 94.7 1.35 92 1.35 88.4V-9.7C1.35 -13.3 4.275 -16.225 7.875 -16.225H136.35C139.725 -16.225 142.65 -13.3 142.65 -9.925V88.4C142.65 91.775 139.725 94.7 136.35 94.7zM65.925 115.175C65.925 118.55 68.625 121.25 72 121.25S78.075 118.55 78.075 115.175S75.375 109.1 72 109.1S65.925 111.8 65.925 115.175zM135.9 87.95V64.1H8.1V87.95H135.9zM8.1 -9.25V57.35H135.9V-9.25H8.1zM40.275 42.5H30.375C29.7 42.5 29.25 42.05 29.25 41.375V31.25C29.25 30.575 29.7 30.125 30.375 30.125H40.275C40.95 30.125 41.4 30.575 41.4 31.25V41.15C41.4 41.825 40.95 42.5 40.275 42.5zM64.8 42.5H54.9C54.225 42.5 53.775 42.05 53.775 41.375V31.25C53.775 30.575 54.225 30.125 54.9 30.125H64.8C65.475 30.125 65.925 30.575 65.925 31.25V41.15C65.925 41.825 65.25 42.5 64.8 42.5zM89.1 42.5H79.2C78.525 42.5 78.075 42.05 78.075 41.375V31.25C78.075 30.575 78.525 30.125 79.2 30.125H89.1C89.775 30.125 90.225 30.575 90.225 31.25V41.15C90.225 41.825 89.775 42.5 89.1 42.5zM113.625 42.5H103.725C103.05 42.5 102.6 42.05 102.6 41.375V31.25C102.6 30.575 103.05 30.125 103.725 30.125H113.625C114.3 30.125 114.75 30.575 114.75 31.25V41.15C114.75 41.825 114.3 42.5 113.625 42.5zM40.275 17.975H30.375C29.7 17.975 29.25 17.525 29.25 16.85V6.95C29.25 6.275 29.7 5.825 30.375 5.825H40.275C40.95 5.825 41.4 6.275 41.4 6.95V16.85C41.4 17.525 40.95 17.975 40.275 17.975zM64.8 17.975H54.9C54.225 17.975 53.775 17.525 53.775 16.85V6.95C53.775 6.275 54.225 5.825 54.9 5.825H64.8C65.475 5.825 65.925 6.275 65.925 6.95V16.85C65.925 17.525 65.25 17.975 64.8 17.975zM89.1 17.975H79.2C78.525 17.975 78.075 17.525 78.075 16.85V6.95C78.075 6.275 78.525 5.825 79.2 5.825H89.1C89.775 5.825 90.225 6.275 90.225 6.95V16.85C90.225 17.525 89.775 17.975 89.1 17.975zM113.625 17.975H103.725C103.05 17.975 102.6 17.525 102.6 16.85V6.95C102.6 6.275 103.05 5.825 103.725 5.825H113.625C114.3 5.825 114.75 6.275 114.75 6.95V16.85C114.75 17.525 114.3 17.975 113.625 17.975z" />
    <glyph glyph-name="calender-alt-1"
      unicode="&#xEA42;"
      horiz-adv-x="144" d="M133.65 104.825H121.725V115.4C121.725 117.2 120.15 118.775 118.35 118.775S114.975 117.2 114.975 115.4V104.825H29.025V115.4C29.025 117.2 27.45 118.775 25.65 118.775S22.275 117.2 22.275 115.4V104.825H10.35C4.725 104.825 0.225 100.325 0.225 94.7V3.575C0.225 -2.05 4.725 -6.55 10.35 -6.55H133.875C139.5 -6.55 144 -2.05 144 3.575V94.7C143.775 100.325 139.275 104.825 133.65 104.825zM10.35 98.075H22.275V87.725C22.275 85.925 23.85 84.35 25.65 84.35S29.025 85.925 29.025 87.725V98.075H115.2V87.725C115.2 85.925 116.775 84.35 118.575 84.35S121.95 85.925 121.95 87.725V98.075H133.875C135.675 98.075 137.25 96.5 137.25 94.7V73.325H6.975V94.7C6.975 96.5 8.325 98.075 10.35 98.075zM133.65 -0.025H10.35C8.55 -0.025 6.975 1.55 6.975 3.35V66.35H137.25V3.35C137.025 1.55 135.675 -0.025 133.65 -0.025zM115.425 53.975H110.025C108.675 53.975 107.775 53.075 107.775 51.725V46.325C107.775 44.975 108.675 44.075 110.025 44.075H115.425C116.775 44.075 117.675 44.975 117.675 46.325V51.725C117.675 53.075 116.775 53.975 115.425 53.975zM54.45 53.975H49.05C47.7 53.975 46.8 53.075 46.8 51.725V46.325C46.8 44.975 47.7 44.075 49.05 44.075H54.45C55.8 44.075 56.7 44.975 56.7 46.325V51.725C56.7 53.075 55.575 53.975 54.45 53.975zM74.7 53.975H69.3C67.95 53.975 67.05 53.075 67.05 51.725V46.325C67.05 44.975 67.95 44.075 69.3 44.075H74.7C76.05 44.075 76.95 44.975 76.95 46.325V51.725C76.95 53.075 76.05 53.975 74.7 53.975zM95.175 53.975H89.775C88.425 53.975 87.525 53.075 87.525 51.725V46.325C87.525 44.975 88.425 44.075 89.775 44.075H95.175C96.525 44.075 97.425 44.975 97.425 46.325V51.725C97.425 53.075 96.3 53.975 95.175 53.975zM115.425 38.225H110.025C108.675 38.225 107.775 37.325 107.775 35.975V30.575C107.775 29.225 108.675 28.325 110.025 28.325H115.425C116.775 28.325 117.675 29.225 117.675 30.575V35.975C117.675 37.1 116.775 38.225 115.425 38.225zM33.975 38.225H28.575C27.225 38.225 26.325 37.325 26.325 35.975V30.575C26.325 29.225 27.225 28.325 28.575 28.325H33.975C35.325 28.325 36.225 29.225 36.225 30.575V35.975C36.225 37.1 35.325 38.225 33.975 38.225zM54.45 38.225H49.05C47.7 38.225 46.8 37.325 46.8 35.975V30.575C46.8 29.225 47.7 28.325 49.05 28.325H54.45C55.8 28.325 56.7 29.225 56.7 30.575V35.975C56.7 37.1 55.575 38.225 54.45 38.225zM74.7 38.225H69.3C67.95 38.225 67.05 37.325 67.05 35.975V30.575C67.05 29.225 67.95 28.325 69.3 28.325H74.7C76.05 28.325 76.95 29.225 76.95 30.575V35.975C76.95 37.1 76.05 38.225 74.7 38.225zM95.175 38.225H89.775C88.425 38.225 87.525 37.325 87.525 35.975V30.575C87.525 29.225 88.425 28.325 89.775 28.325H95.175C96.525 28.325 97.425 29.225 97.425 30.575V35.975C97.425 37.1 96.3 38.225 95.175 38.225zM33.975 22.25H28.575C27.225 22.25 26.325 21.35 26.325 20V14.6C26.325 13.25 27.225 12.35 28.575 12.35H33.975C35.325 12.35 36.225 13.25 36.225 14.6V20C36.225 21.35 35.325 22.25 33.975 22.25zM54.45 22.25H49.05C47.7 22.25 46.8 21.35 46.8 20V14.6C46.8 13.25 47.7 12.35 49.05 12.35H54.45C55.8 12.35 56.7 13.25 56.7 14.6V20C56.7 21.35 55.575 22.25 54.45 22.25zM74.7 22.25H69.3C67.95 22.25 67.05 21.35 67.05 20V14.6C67.05 13.25 67.95 12.35 69.3 12.35H74.7C76.05 12.35 76.95 13.25 76.95 14.6V20C76.95 21.35 76.05 22.25 74.7 22.25zM95.175 22.25H89.775C88.425 22.25 87.525 21.35 87.525 20V14.6C87.525 13.25 88.425 12.35 89.775 12.35H95.175C96.525 12.35 97.425 13.25 97.425 14.6V20C97.425 21.35 96.3 22.25 95.175 22.25z" />
    <glyph glyph-name="calender-alt-2"
      unicode="&#xEA43;"
      horiz-adv-x="144" d="M133.65 104.825H121.725V115.175C121.725 116.975 120.15 118.55 118.35 118.55S114.975 116.975 114.975 115.175V104.6H29.025V115.175C29.025 116.975 27.45 118.55 25.65 118.55S22.275 117.2 22.275 115.175V104.6H10.35C4.725 104.6 0.225 100.1 0.225 94.475V3.35C0.225 -2.275 4.725 -6.775 10.35 -6.775H133.65C139.275 -6.775 143.775 -2.275 143.775 3.35V94.7C143.775 100.1 139.275 104.825 133.65 104.825zM6.975 66.575H35.1V38H6.975V66.575zM41.625 66.575H68.625V38H41.625V66.575zM68.625 31.25V-0.025H41.625V31.25H68.625zM75.375 31.25H102.375V-0.025H75.375V31.25zM75.375 38V66.575H102.375V38H75.375zM109.125 66.575H137.25V38H109.125V66.575zM10.35 98.075H22.275V87.725C22.275 85.925 23.85 84.35 25.65 84.35S29.025 85.925 29.025 87.725V98.075H115.2V87.725C115.2 85.925 116.775 84.35 118.575 84.35S121.95 85.925 121.95 87.725V98.075H133.875C135.675 98.075 137.25 96.5 137.25 94.7V73.325H6.975V94.7C6.975 96.5 8.325 98.075 10.35 98.075zM6.975 3.575V31.25H35.1V-0.025H10.35C8.325 0.2 6.975 1.55 6.975 3.575zM133.65 0.2H108.9V31.25H137.025V3.35C137.025 1.55 135.675 0.2 133.65 0.2z" />
    <glyph glyph-name="calender-alt-3"
      unicode="&#xEA44;"
      horiz-adv-x="144" d="M133.425 114.05H121.725V124.4C121.725 126.2 120.15 127.775 118.35 127.775S114.975 126.2 114.975 124.4V113.825H29.025V124.4C29.025 126.2 27.45 127.775 25.65 127.775S22.275 126.425 22.275 124.4V113.825H10.575C4.95 113.825 0.225 109.1 0.225 103.475V26.75C0.225 21.125 4.95 16.4 10.575 16.4H90.675C90.225 14.6 90 12.8 90 11C90 -3.85 102.15 -15.775 116.775 -15.775C131.625 -15.775 143.55 -3.625 143.55 11C143.55 14.375 142.875 17.75 141.75 20.9C142.875 22.7 143.55 24.725 143.55 26.75V103.7C143.775 109.325 139.275 114.05 133.425 114.05zM10.575 107.3H22.275V96.95C22.275 95.15 23.85 93.575 25.65 93.575S29.025 95.15 29.025 96.95V107.3H115.2V96.95C115.2 95.15 116.775 93.575 118.575 93.575S121.95 95.15 121.95 96.95V107.3H133.65C135.675 107.3 137.25 105.725 137.25 103.7V82.55H6.975V103.7C6.975 105.5 8.55 107.3 10.575 107.3zM117 -9.025C105.975 -9.025 96.975 -0.025 96.975 11S105.975 31.025 117 31.025S137.025 22.025 137.025 11S128.025 -9.025 117 -9.025zM117 38C106.65 38 97.425 31.925 93.15 23.375H10.575C8.55 23.375 6.975 24.95 6.975 26.975V75.575H137.25V28.775C132.3 34.4 125.1 38 117 38zM115.425 65.45H110.025C108.675 65.45 107.775 64.55 107.775 63.2V57.8C107.775 56.45 108.675 55.55 110.025 55.55H115.425C116.775 55.55 117.675 56.45 117.675 57.8V63.2C117.675 64.55 116.775 65.45 115.425 65.45zM54.45 65.45H49.05C47.7 65.45 46.8 64.55 46.8 63.2V57.8C46.8 56.45 47.7 55.55 49.05 55.55H54.45C55.8 55.55 56.7 56.45 56.7 57.8V63.2C56.7 64.55 55.575 65.45 54.45 65.45zM74.7 65.45H69.3C67.95 65.45 67.05 64.55 67.05 63.2V57.8C67.05 56.45 67.95 55.55 69.3 55.55H74.7C76.05 55.55 76.95 56.45 76.95 57.8V63.2C76.95 64.55 76.05 65.45 74.7 65.45zM95.175 65.45H89.775C88.425 65.45 87.525 64.55 87.525 63.2V57.8C87.525 56.45 88.425 55.55 89.775 55.55H95.175C96.525 55.55 97.425 56.45 97.425 57.8V63.2C97.425 64.55 96.3 65.45 95.175 65.45zM33.975 49.7H28.575C27.225 49.7 26.325 48.8 26.325 47.45V42.05C26.325 40.7 27.225 39.8 28.575 39.8H33.975C35.325 39.8 36.225 40.7 36.225 42.05V47.45C36.225 48.575 35.325 49.7 33.975 49.7zM54.45 49.7H49.05C47.7 49.7 46.8 48.8 46.8 47.45V42.05C46.8 40.7 47.7 39.8 49.05 39.8H54.45C55.8 39.8 56.7 40.7 56.7 42.05V47.45C56.7 48.575 55.575 49.7 54.45 49.7zM74.7 49.7H69.3C67.95 49.7 67.05 48.8 67.05 47.45V42.05C67.05 40.7 67.95 39.8 69.3 39.8H74.7C76.05 39.8 76.95 40.7 76.95 42.05V47.45C76.95 48.575 76.05 49.7 74.7 49.7zM95.175 49.7H89.775C88.425 49.7 87.525 48.8 87.525 47.45V42.05C87.525 40.7 88.425 39.8 89.775 39.8H95.175C96.525 39.8 97.425 40.7 97.425 42.05V47.45C97.425 48.575 96.3 49.7 95.175 49.7zM124.875 14.15H120.375V18.425C120.375 20.225 118.8 21.8 117 21.8S113.625 20.225 113.625 18.425V11C113.625 9.425 114.525 8.3 115.875 7.85C116.325 7.625 116.775 7.4 117.45 7.4H124.875C126.675 7.4 128.25 8.975 128.25 10.775S126.675 14.15 124.875 14.15z" />
    <glyph glyph-name="calender-alt-4"
      unicode="&#xEA45;"
      horiz-adv-x="144" d="M133.65 104.825H121.725V115.4C121.725 117.2 120.15 118.775 118.35 118.775S114.975 117.2 114.975 115.4V104.825H29.025V115.4C29.025 117.2 27.45 118.775 25.65 118.775S22.275 117.2 22.275 115.4V104.825H10.35C4.725 104.825 0.225 100.325 0.225 94.7V3.575C0.225 -2.05 4.725 -6.55 10.35 -6.55H133.875C139.5 -6.55 144 -2.05 144 3.575V94.7C143.775 100.325 139.275 104.825 133.65 104.825zM10.35 98.075H22.275V87.725C22.275 85.925 23.85 84.35 25.65 84.35S29.025 85.925 29.025 87.725V98.075H115.2V87.725C115.2 85.925 116.775 84.35 118.575 84.35S121.95 85.925 121.95 87.725V98.075H133.875C135.675 98.075 137.25 96.5 137.25 94.7V73.325H6.975V94.7C6.975 96.5 8.325 98.075 10.35 98.075zM133.65 -0.025H10.35C8.55 -0.025 6.975 1.55 6.975 3.35V66.35H137.25V3.35C137.025 1.55 135.675 -0.025 133.65 -0.025zM90.225 49.25L67.5 26.525L58.95 35.075C57.6 36.425 55.575 36.425 54.225 35.075S52.875 31.7 54.225 30.35L65.025 19.55C65.7 18.875 66.6 18.65 67.5 18.65S69.3 18.875 69.975 19.55L94.95 44.525C96.3 45.875 96.3 47.9 94.95 49.25S91.35 50.6 90.225 49.25z" />
    <glyph glyph-name="calender-alt"
      unicode="&#xEA46;"
      horiz-adv-x="144" d="M133.65 104.825H121.725V115.4C121.725 117.2 120.15 118.775 118.35 118.775S114.975 117.2 114.975 115.4V104.825H29.025V115.4C29.025 117.2 27.45 118.775 25.65 118.775S22.275 117.2 22.275 115.4V104.825H10.35C4.725 104.825 0.225 100.325 0.225 94.7V3.575C0.225 -2.05 4.725 -6.55 10.35 -6.55H133.875C139.5 -6.55 144 -2.05 144 3.575V94.7C143.775 100.325 139.275 104.825 133.65 104.825zM10.35 98.075H22.275V87.725C22.275 85.925 23.85 84.35 25.65 84.35S29.025 85.925 29.025 87.725V98.075H115.2V87.725C115.2 85.925 116.775 84.35 118.575 84.35S121.95 85.925 121.95 87.725V98.075H133.875C135.675 98.075 137.25 96.5 137.25 94.7V73.325H6.975V94.7C6.975 96.5 8.325 98.075 10.35 98.075zM133.65 -0.025H10.35C8.55 -0.025 6.975 1.55 6.975 3.35V66.35H137.25V3.35C137.025 1.55 135.675 -0.025 133.65 -0.025zM75.375 49.7C75.375 49.925 75.375 49.925 75.15 50.15V50.375C74.925 50.825 74.7 51.275 74.475 51.5L74.25 51.725L74.025 51.95S73.8 51.95 73.8 52.175C73.8 52.175 73.575 52.175 73.575 52.4H73.35H72C71.775 52.4 71.775 52.4 71.55 52.175H71.325C71.1 52.175 70.875 51.95 70.65 51.95L59.625 44.525C58.05 43.4 57.6 41.375 58.725 39.8C59.4 38.9 60.525 38.225 61.425 38.225C62.1 38.225 62.775 38.45 63.225 38.9L69.075 42.725V19.325C69.075 17.525 70.65 15.95 72.45 15.95S75.825 17.525 75.825 19.325V49.025C75.375 49.25 75.375 49.475 75.375 49.7z" />
    <glyph glyph-name="camera-alt-1"
      unicode="&#xEA47;"
      horiz-adv-x="144" d="M128.25 90.65H108.45L103.5 100.55C100.8 105.95 95.4 109.325 89.325 109.325H54.675C48.6 109.325 43.2 105.95 40.5 100.55L35.55 90.65H15.75C6.975 90.65 0 83.45 0 74.9V18.65C0 9.875 7.2 2.9 15.75 2.9H128.25C137.025 2.9 144 10.1 144 18.65V74.9C144 83.45 136.8 90.65 128.25 90.65zM137.25 18.65C137.25 13.7 133.2 9.65 128.25 9.65H15.75C10.8 9.65 6.75 13.7 6.75 18.65V74.9C6.75 79.85 10.8 83.9 15.75 83.9H37.575C38.925 83.9 40.05 84.575 40.5 85.7L46.35 97.625C47.925 100.775 51.075 102.575 54.45 102.575H88.875C92.25 102.575 95.4 100.55 96.975 97.625L102.825 85.7C103.5 84.575 104.625 83.9 105.75 83.9H128.25C133.2 83.9 137.25 79.85 137.25 74.9V18.65zM72 71.75C59.85 71.75 49.95 61.85 49.95 49.7S59.85 27.65 72 27.65S94.05 37.55 94.05 49.7S84.15 71.75 72 71.75zM72 34.4C63.45 34.4 56.7 41.375 56.7 49.7C56.7 58.25 63.675 65 72 65C80.55 65 87.3 58.025 87.3 49.7C87.3 41.375 80.55 34.4 72 34.4zM34.65 71.75H22.05C20.25 71.75 18.675 70.175 18.675 68.375S20.25 65 22.05 65H34.425C36.225 65 37.8 66.575 37.8 68.375S36.45 71.75 34.65 71.75z" />
    <glyph glyph-name="camera-alt"
      unicode="&#xEA48;"
      horiz-adv-x="144" d="M128.25 90.65V97.4C128.25 98.75 127.35 99.65 126 99.65H105.525C104.175 99.65 103.275 98.75 103.275 97.4V90.65H87.75V93.575C87.75 102.35 80.55 109.325 72 109.325H47.025C38.25 109.325 31.275 102.125 31.275 93.575V90.65H15.75C6.975 90.65 0 83.45 0 74.9V18.65C0 9.875 7.2 2.9 15.75 2.9H128.25C137.025 2.9 144 10.1 144 18.65V74.9C144 83.45 136.8 90.65 128.25 90.65zM137.25 18.65C137.25 13.7 133.2 9.65 128.25 9.65H15.75C10.8 9.65 6.75 13.7 6.75 18.65V74.9C6.75 79.85 10.8 83.9 15.75 83.9H34.425C36.225 83.9 37.8 85.475 37.8 87.275V93.575C37.8 98.525 41.85 102.575 46.8 102.575H72C76.95 102.575 81 98.525 81 93.575V87.275C81 85.475 82.575 83.9 84.375 83.9H128.25C133.2 83.9 137.25 79.85 137.25 74.9V18.65zM62.55 78.05C48.6 78.05 37.35 66.8 37.35 52.85S48.6 27.65 62.55 27.65C76.5 27.65 87.75 38.9 87.75 52.85S76.5 78.05 62.55 78.05zM62.55 34.4C52.425 34.4 44.1 42.725 44.1 52.85C44.1 62.975 52.425 71.3 62.55 71.3S81 62.975 81 52.85C81 42.725 72.9 34.4 62.55 34.4z" />
    <glyph glyph-name="camera"
      unicode="&#xEA49;"
      horiz-adv-x="144" d="M142.65 82.1C141.525 83.45 139.5 84.35 137.7 84.35H109.35C107.775 84.35 106.425 85.7 106.425 87.275V96.5C106.425 99.425 105.075 103.025 98.775 103.025H44.55C38.7 103.025 37.35 99.425 37.35 96.5V87.275C37.35 85.7 36 84.35 34.425 84.35H6.525C2.925 84.35 0 81.425 0 77.825V15.5C0 11.9 2.925 8.975 6.525 8.975H137.475C141.075 8.975 144 11.9 144 15.5V77.6C144.225 79.175 143.775 80.75 142.65 82.1zM137.25 15.725H6.75V77.6H34.65C40.05 77.6 44.325 81.875 44.325 87.275V96.275H99.9V87.275C99.9 81.875 104.175 77.6 109.575 77.6H137.25V15.725zM73.35 71.75C63 71.75 54.45 63.2 54.45 52.625S62.775 33.725 73.35 33.725C83.7 33.725 92.25 42.275 92.25 52.625C92.25 63.2 83.7 71.75 73.35 71.75zM73.35 40.7C66.6 40.7 61.2 46.1 61.2 52.85C61.2 59.6 66.6 65.225 73.35 65.225C79.875 65.225 85.5 59.6 85.5 52.85S80.1 40.7 73.35 40.7zM22.05 68.375C18.675 68.375 15.75 65.675 15.75 62.075S18.675 56 22.05 56C25.425 56 28.35 58.7 28.35 62.3S25.425 68.375 22.05 68.375z" />
    </font>
</defs>
</svg>
